  0
SECTION
  2
HEADER
  9
$ACADVER
  1
AC1015
  9
$ACADMAINTVER
 70
     6
  9
$DWGCODEPAGE
  3
ANSI_932
  9
$INSBASE
 10
0.0
 20
0.0
 30
0.0
  9
$EXTMIN
 10
119.0
 20
63.0
 30
0.0
  9
$EXTMAX
 10
2814.0
 20
2023.0
 30
0.0
  9
$LIMMIN
 10
0.0
 20
0.0
  9
$LIMMAX
 10
420.0
 20
297.0
  9
$ORTHOMODE
 70
     0
  9
$REGENMODE
 70
     1
  9
$FILLMODE
 70
     1
  9
$QTEXTMODE
 70
     0
  9
$MIRRTEXT
 70
     1
  9
$LTSCALE
 40
1.0
  9
$ATTMODE
 70
     1
  9
$TEXTSIZE
 40
0.2
  9
$TRACEWID
 40
0.05
  9
$TEXTSTYLE
  7
Standard
  9
$CLAYER
  8
中心線
  9
$CELTYPE
  6
Continuous
  9
$CECOLOR
 62
   256
  9
$CELTSCALE
 40
1.0
  9
$DISPSILH
 70
     0
  9
$DIMSCALE
 40
1.0
  9
$DIMASZ
 40
0.18
  9
$DIMEXO
 40
0.0625
  9
$DIMDLI
 40
0.38
  9
$DIMRND
 40
0.0
  9
$DIMDLE
 40
0.0
  9
$DIMEXE
 40
0.18
  9
$DIMTP
 40
0.0
  9
$DIMTM
 40
0.0
  9
$DIMTXT
 40
0.18
  9
$DIMCEN
 40
0.09
  9
$DIMTSZ
 40
0.0
  9
$DIMTOL
 70
     0
  9
$DIMLIM
 70
     0
  9
$DIMTIH
 70
     1
  9
$DIMTOH
 70
     1
  9
$DIMSE1
 70
     0
  9
$DIMSE2
 70
     0
  9
$DIMTAD
 70
     0
  9
$DIMZIN
 70
     0
  9
$DIMBLK
  1

  9
$DIMASO
 70
     1
  9
$DIMSHO
 70
     1
  9
$DIMPOST
  1

  9
$DIMAPOST
  1

  9
$DIMALT
 70
     0
  9
$DIMALTD
 70
     2
  9
$DIMALTF
 40
25.4
  9
$DIMLFAC
 40
1.0
  9
$DIMTOFL
 70
     0
  9
$DIMTVP
 40
0.0
  9
$DIMTIX
 70
     0
  9
$DIMSOXD
 70
     0
  9
$DIMSAH
 70
     0
  9
$DIMBLK1
  1

  9
$DIMBLK2
  1

  9
$DIMSTYLE
  2
Standard
  9
$DIMCLRD
 70
     0
  9
$DIMCLRE
 70
     0
  9
$DIMCLRT
 70
     0
  9
$DIMTFAC
 40
1.0
  9
$DIMGAP
 40
0.09
  9
$DIMJUST
 70
     0
  9
$DIMSD1
 70
     0
  9
$DIMSD2
 70
     0
  9
$DIMTOLJ
 70
     1
  9
$DIMTZIN
 70
     0
  9
$DIMALTZ
 70
     0
  9
$DIMALTTZ
 70
     0
  9
$DIMUPT
 70
     0
  9
$DIMDEC
 70
     4
  9
$DIMTDEC
 70
     4
  9
$DIMALTU
 70
     2
  9
$DIMALTTD
 70
     2
  9
$DIMTXSTY
  7
Standard
  9
$DIMAUNIT
 70
     0
  9
$DIMADEC
 70
     0
  9
$DIMALTRND
 40
0.0
  9
$DIMAZIN
 70
     0
  9
$DIMDSEP
 70
    46
  9
$DIMATFIT
 70
     3
  9
$DIMFRAC
 70
     0
  9
$DIMLDRBLK
  1

  9
$DIMLUNIT
 70
     2
  9
$DIMLWD
 70
    -2
  9
$DIMLWE
 70
    -2
  9
$DIMTMOVE
 70
     2
  9
$LUNITS
 70
     2
  9
$LUPREC
 70
     4
  9
$SKETCHINC
 40
0.1
  9
$FILLETRAD
 40
0.0
  9
$AUNITS
 70
     0
  9
$AUPREC
 70
     0
  9
$MENU
  1
.
  9
$ELEVATION
 40
0.0
  9
$PELEVATION
 40
0.0
  9
$THICKNESS
 40
0.0
  9
$LIMCHECK
 70
     0
  9
$CHAMFERA
 40
0.0
  9
$CHAMFERB
 40
0.0
  9
$CHAMFERC
 40
0.0
  9
$CHAMFERD
 40
0.0
  9
$SKPOLY
 70
     0
  9
$TDCREATE
 40
2453354.092125822
  9
$TDUCREATE
 40
2453353.717125822
  9
$TDUPDATE
 40
2455526.144865162
  9
$TDUUPDATE
 40
2455525.769865162
  9
$TDINDWG
 40
0.0501273264
  9
$TDUSRTIMER
 40
0.0501273264
  9
$USRTIMER
 70
     1
  9
$ANGBASE
 50
0.0
  9
$ANGDIR
 70
     0
  9
$PDMODE
 70
     0
  9
$PDSIZE
 40
0.0
  9
$PLINEWID
 40
0.0
  9
$SPLFRAME
 70
     0
  9
$SPLINETYPE
 70
     6
  9
$SPLINESEGS
 70
     8
  9
$HANDSEED
  5
567
  9
$SURFTAB1
 70
     6
  9
$SURFTAB2
 70
     6
  9
$SURFTYPE
 70
     6
  9
$SURFU
 70
     6
  9
$SURFV
 70
     6
  9
$UCSBASE
  2

  9
$UCSNAME
  2

  9
$UCSORG
 10
0.0
 20
0.0
 30
0.0
  9
$UCSXDIR
 10
1.0
 20
0.0
 30
0.0
  9
$UCSYDIR
 10
0.0
 20
1.0
 30
0.0
  9
$UCSORTHOREF
  2

  9
$UCSORTHOVIEW
 70
     0
  9
$UCSORGTOP
 10
0.0
 20
0.0
 30
0.0
  9
$UCSORGBOTTOM
 10
0.0
 20
0.0
 30
0.0
  9
$UCSORGLEFT
 10
0.0
 20
0.0
 30
0.0
  9
$UCSORGRIGHT
 10
0.0
 20
0.0
 30
0.0
  9
$UCSORGFRONT
 10
0.0
 20
0.0
 30
0.0
  9
$UCSORGBACK
 10
0.0
 20
0.0
 30
0.0
  9
$PUCSBASE
  2

  9
$PUCSNAME
  2

  9
$PUCSORG
 10
0.0
 20
0.0
 30
0.0
  9
$PUCSXDIR
 10
1.0
 20
0.0
 30
0.0
  9
$PUCSYDIR
 10
0.0
 20
1.0
 30
0.0
  9
$PUCSORTHOREF
  2

  9
$PUCSORTHOVIEW
 70
     0
  9
$PUCSORGTOP
 10
0.0
 20
0.0
 30
0.0
  9
$PUCSORGBOTTOM
 10
0.0
 20
0.0
 30
0.0
  9
$PUCSORGLEFT
 10
0.0
 20
0.0
 30
0.0
  9
$PUCSORGRIGHT
 10
0.0
 20
0.0
 30
0.0
  9
$PUCSORGFRONT
 10
0.0
 20
0.0
 30
0.0
  9
$PUCSORGBACK
 10
0.0
 20
0.0
 30
0.0
  9
$USERI1
 70
     0
  9
$USERI2
 70
     0
  9
$USERI3
 70
     0
  9
$USERI4
 70
     0
  9
$USERI5
 70
     0
  9
$USERR1
 40
0.0
  9
$USERR2
 40
0.0
  9
$USERR3
 40
0.0
  9
$USERR4
 40
0.0
  9
$USERR5
 40
0.0
  9
$WORLDVIEW
 70
     1
  9
$SHADEDGE
 70
     3
  9
$SHADEDIF
 70
    70
  9
$TILEMODE
 70
     1
  9
$MAXACTVP
 70
    16
  9
$PINSBASE
 10
0.0
 20
0.0
 30
0.0
  9
$PLIMCHECK
 70
     0
  9
$PEXTMIN
 10
0.0
 20
0.0
 30
0.0
  9
$PEXTMAX
 10
0.0
 20
0.0
 30
0.0
  9
$PLIMMIN
 10
0.0
 20
0.0
  9
$PLIMMAX
 10
0.0
 20
0.0
  9
$UNITMODE
 70
     0
  9
$VISRETAIN
 70
     0
  9
$PLINEGEN
 70
     1
  9
$PSLTSCALE
 70
     0
  9
$TREEDEPTH
 70
  3020
  9
$CMLSTYLE
  2
Standard
  9
$CMLJUST
 70
     0
  9
$CMLSCALE
 40
1.0
  9
$PROXYGRAPHICS
 70
     0
  9
$MEASUREMENT
 70
     0
  9
$CELWEIGHT
370
    -1
  9
$ENDCAPS
280
     0
  9
$JOINSTYLE
280
     0
  9
$LWDISPLAY
290
     0
  9
$INSUNITS
 70
     0
  9
$HYPERLINKBASE
  1

  9
$STYLESHEET
  1

  9
$XEDIT
290
     0
  9
$CEPSNTYPE
380
     0
  9
$PSTYLEMODE
290
     1
  9
$FINGERPRINTGUID
  2
{F86142DD-2310-4237-9AB8-B26314140DFE}
  9
$VERSIONGUID
  2
{FAEB1C32-E019-11D5-929B-00C0DF256EC4}
  9
$EXTNAMES
290
     1
  9
$PSVPSCALE
 40
0.0
  9
$OLESTARTUP
290
     0
  0
ENDSEC
  0
SECTION
  2
CLASSES
  0
CLASS
  1
ACDBDICTIONARYWDFLT
  2
AcDbDictionaryWithDefault
  3
ObjectDBX Classes
 90
        0
280
     0
281
     0
  0
CLASS
  1
ACDBPLACEHOLDER
  2
AcDbPlaceHolder
  3
ObjectDBX Classes
 90
        0
280
     0
281
     0
  0
CLASS
  1
LAYOUT
  2
AcDbLayout
  3
ObjectDBX Classes
 90
        0
280
     0
281
     0
  0
CLASS
  1
DICTIONARYVAR
  2
AcDbDictionaryVar
  3
ObjectDBX Classes
 90
        0
280
     0
281
     0
  0
CLASS
  1
TABLESTYLE
  2
AcDbTableStyle
  3
ObjectDBX Classes
 90
     4095
280
     0
281
     0
  0
CLASS
  1
SCALE
  2
AcDbScale
  3
ObjectDBX Classes
 90
     1153
280
     0
281
     0
  0
ENDSEC
  0
SECTION
  2
TABLES
  0
TABLE
  2
VPORT
  5
8
330
0
100
AcDbSymbolTable
 70
     2
  0
VPORT
  5
97
330
8
100
AcDbSymbolTableRecord
100
AcDbViewportTableRecord
  2
*ACTIVE
 70
     0
 10
0.0
 20
0.0
 11
1.0
 21
1.0
 12
1466.5
 22
1043.0
 13
0.0
 23
0.0
 14
1.0
 24
1.0
 15
0.0
 25
0.0
 16
0.0
 26
0.0
 36
1.0
 17
0.0
 27
0.0
 37
0.0
 40
1999.2
 41
1.722533
 42
50.0
 43
0.0
 44
0.0
 50
0.0
 51
0.0
 71
    16
 72
   100
 73
     1
 74
     1
 75
     0
 76
     0
 77
     0
 78
     0
281
     0
 65
     0
110
0.0
120
0.0
130
0.0
111
1.0
121
0.0
131
0.0
112
0.0
122
1.0
132
0.0
 79
     0
146
0.0
  0
ENDTAB
  0
TABLE
  2
LTYPE
  5
5
330
0
100
AcDbSymbolTable
 70
     9
  0
LTYPE
  5
14
330
5
100
AcDbSymbolTableRecord
100
AcDbLinetypeTableRecord
  2
ByBlock
 70
     0
  3

 72
    65
 73
     0
 40
0.0
  0
LTYPE
  5
15
330
5
100
AcDbSymbolTableRecord
100
AcDbLinetypeTableRecord
  2
ByLayer
 70
     0
  3

 72
    65
 73
     0
 40
0.0
  0
LTYPE
  5
16
330
5
100
AcDbSymbolTableRecord
100
AcDbLinetypeTableRecord
  2
Continuous
 70
     0
  3
実線
 72
    65
 73
     0
 40
0.0
  0
LTYPE
  5
4DE
330
5
100
AcDbSymbolTableRecord
100
AcDbLinetypeTableRecord
  2
EXLTYPE1
 70
     0
  3
破線
 72
    65
 73
     2
 40
4.0
 49
3.0
 74
     4
 75
     0
340
0
 46
1.0
 50
0.0
 44
0.0
 45
0.0
 49
-1.0
 74
     4
 75
     0
340
0
 46
1.0
 50
0.0
 44
0.0
 45
0.0
  0
LTYPE
  5
4DF
330
5
100
AcDbSymbolTableRecord
100
AcDbLinetypeTableRecord
  2
EXLTYPE2
 70
     0
  3
点線
 72
    65
 73
     2
 40
2.0
 49
1.0
 74
     4
 75
     0
340
0
 46
1.0
 50
0.0
 44
0.0
 45
0.0
 49
-1.0
 74
     4
 75
     0
340
0
 46
1.0
 50
0.0
 44
0.0
 45
0.0
  0
LTYPE
  5
4E0
330
5
100
AcDbSymbolTableRecord
100
AcDbLinetypeTableRecord
  2
EXLTYPE3
 70
     0
  3
一点鎖線
 72
    65
 73
     4
 40
33.0
 49
30.0
 74
     4
 75
     0
340
0
 46
1.0
 50
0.0
 44
0.0
 45
0.0
 49
-1.0
 74
     4
 75
     0
340
0
 46
1.0
 50
0.0
 44
0.0
 45
0.0
 49
1.0
 74
     4
 75
     0
340
0
 46
1.0
 50
0.0
 44
0.0
 45
0.0
 49
-1.0
 74
     4
 75
     0
340
0
 46
1.0
 50
0.0
 44
0.0
 45
0.0
  0
LTYPE
  5
4E1
330
5
100
AcDbSymbolTableRecord
100
AcDbLinetypeTableRecord
  2
EXLTYPE4
 70
     0
  3
二点鎖線
 72
    65
 73
     6
 40
35.0
 49
30.0
 74
     4
 75
     0
340
0
 46
1.0
 50
0.0
 44
0.0
 45
0.0
 49
-1.0
 74
     4
 75
     0
340
0
 46
1.0
 50
0.0
 44
0.0
 45
0.0
 49
1.0
 74
     4
 75
     0
340
0
 46
1.0
 50
0.0
 44
0.0
 45
0.0
 49
-1.0
 74
     4
 75
     0
340
0
 46
1.0
 50
0.0
 44
0.0
 45
0.0
 49
1.0
 74
     4
 75
     0
340
0
 46
1.0
 50
0.0
 44
0.0
 45
0.0
 49
-1.0
 74
     4
 75
     0
340
0
 46
1.0
 50
0.0
 44
0.0
 45
0.0
  0
LTYPE
  5
4E2
330
5
100
AcDbSymbolTableRecord
100
AcDbLinetypeTableRecord
  2
EXLTYPE5
 70
     0
  3
三点鎖線
 72
    65
 73
     8
 40
37.0
 49
30.0
 74
     4
 75
     0
340
0
 46
1.0
 50
0.0
 44
0.0
 45
0.0
 49
-1.0
 74
     4
 75
     0
340
0
 46
1.0
 50
0.0
 44
0.0
 45
0.0
 49
1.0
 74
     4
 75
     0
340
0
 46
1.0
 50
0.0
 44
0.0
 45
0.0
 49
-1.0
 74
     4
 75
     0
340
0
 46
1.0
 50
0.0
 44
0.0
 45
0.0
 49
1.0
 74
     4
 75
     0
340
0
 46
1.0
 50
0.0
 44
0.0
 45
0.0
 49
-1.0
 74
     4
 75
     0
340
0
 46
1.0
 50
0.0
 44
0.0
 45
0.0
 49
1.0
 74
     4
 75
     0
340
0
 46
1.0
 50
0.0
 44
0.0
 45
0.0
 49
-1.0
 74
     4
 75
     0
340
0
 46
1.0
 50
0.0
 44
0.0
 45
0.0
  0
LTYPE
  5
4E3
330
5
100
AcDbSymbolTableRecord
100
AcDbLinetypeTableRecord
  2
EXLTYPE6
 70
     0
  3
四点鎖線
 72
    65
 73
    10
 40
39.0
 49
30.0
 74
     4
 75
     0
340
0
 46
1.0
 50
0.0
 44
0.0
 45
0.0
 49
-1.0
 74
     4
 75
     0
340
0
 46
1.0
 50
0.0
 44
0.0
 45
0.0
 49
1.0
 74
     4
 75
     0
340
0
 46
1.0
 50
0.0
 44
0.0
 45
0.0
 49
-1.0
 74
     4
 75
     0
340
0
 46
1.0
 50
0.0
 44
0.0
 45
0.0
 49
1.0
 74
     4
 75
     0
340
0
 46
1.0
 50
0.0
 44
0.0
 45
0.0
 49
-1.0
 74
     4
 75
     0
340
0
 46
1.0
 50
0.0
 44
0.0
 45
0.0
 49
1.0
 74
     4
 75
     0
340
0
 46
1.0
 50
0.0
 44
0.0
 45
0.0
 49
-1.0
 74
     4
 75
     0
340
0
 46
1.0
 50
0.0
 44
0.0
 45
0.0
 49
1.0
 74
     4
 75
     0
340
0
 46
1.0
 50
0.0
 44
0.0
 45
0.0
 49
-1.0
 74
     4
 75
     0
340
0
 46
1.0
 50
0.0
 44
0.0
 45
0.0
  0
LTYPE
  5
4E4
330
5
100
AcDbSymbolTableRecord
100
AcDbLinetypeTableRecord
  2
EXLTYPE7
 70
     0
  3
一点鎖線4
 72
    65
 73
     4
 40
0.125
 49
0.05
 74
     4
 75
     0
340
0
 46
1.0
 50
0.0
 44
0.0
 45
0.0
 49
-0.025
 74
     4
 75
     0
340
0
 46
1.0
 50
0.0
 44
0.0
 45
0.0
 49
0.025
 74
     4
 75
     0
340
0
 46
1.0
 50
0.0
 44
0.0
 45
0.0
 49
-0.025
 74
     4
 75
     0
340
0
 46
1.0
 50
0.0
 44
0.0
 45
0.0
  0
LTYPE
  5
4E5
330
5
100
AcDbSymbolTableRecord
100
AcDbLinetypeTableRecord
  2
EXLTYPE8
 70
     0
  3
破線2
 72
    65
 73
     2
 40
1.0
 49
0.75
 74
     4
 75
     0
340
0
 46
1.0
 50
0.0
 44
0.0
 45
0.0
 49
-0.25
 74
     4
 75
     0
340
0
 46
1.0
 50
0.0
 44
0.0
 45
0.0
  0
ENDTAB
  0
TABLE
  2
LAYER
  5
2
330
0
100
AcDbSymbolTable
 70
    10
  0
LAYER
  5
10
330
2
100
AcDbSymbolTableRecord
100
AcDbLayerTableRecord
  2
0
 70
     0
 62
     7
  6
Continuous
370
    -3
390
F
  0
LAYER
  5
4E6
330
2
100
AcDbSymbolTableRecord
100
AcDbLayerTableRecord
  2
補助線
 70
     0
 62
     4
  6
Continuous
370
    -3
390
F
  0
LAYER
  5
28
330
2
100
AcDbSymbolTableRecord
100
AcDbLayerTableRecord
  2
作図線（太線）
 70
     0
 62
     7
  6
Continuous
370
    -3
390
F
  0
LAYER
  5
29
330
2
100
AcDbSymbolTableRecord
100
AcDbLayerTableRecord
  2
寸法線
 70
     0
 62
     1
  6
Continuous
370
    -3
390
F
  0
LAYER
  5
2A
330
2
100
AcDbSymbolTableRecord
100
AcDbLayerTableRecord
  2
文字
 70
     0
 62
     3
  6
Continuous
370
    -3
390
F
  0
LAYER
  5
2B
330
2
100
AcDbSymbolTableRecord
100
AcDbLayerTableRecord
  2
図面枠
 70
     0
 62
     2
  6
Continuous
370
    -3
390
F
  0
LAYER
  5
2C
330
2
100
AcDbSymbolTableRecord
100
AcDbLayerTableRecord
  2
作図線（細線）
 70
     0
 62
     3
  6
Continuous
370
    -3
390
F
  0
LAYER
  5
2D
330
2
100
AcDbSymbolTableRecord
100
AcDbLayerTableRecord
  2
作図線（隠線）
 70
     0
 62
     7
  6
EXLTYPE2
370
    -3
390
F
  0
LAYER
  5
2E
330
2
100
AcDbSymbolTableRecord
100
AcDbLayerTableRecord
  2
中心線
 70
     0
 62
     3
  6
EXLTYPE3
370
    -3
390
F
  0
LAYER
  5
2F
330
2
100
AcDbSymbolTableRecord
100
AcDbLayerTableRecord
  2
想像線
 70
     0
 62
     3
  6
EXLTYPE4
370
    -3
390
F
  0
ENDTAB
  0
TABLE
  2
STYLE
  5
3
330
0
100
AcDbSymbolTable
 70
     5
  0
STYLE
  5
11
330
3
100
AcDbSymbolTableRecord
100
AcDbTextStyleTableRecord
  2
Standard
 70
     0
 40
0.0
 41
1.0
 50
0.0
 71
     0
 42
0.2
  3
monotxt
  4
extfont
  0
STYLE
  5
25
330
3
100
AcDbSymbolTableRecord
100
AcDbTextStyleTableRecord
  2
EXCADSTD
 70
     0
 40
0.0
 41
1.0
 50
0.0
 71
     0
 42
0.2
  3
monotxt
  4
extfont
  0
STYLE
  5
26
330
3
100
AcDbSymbolTableRecord
100
AcDbTextStyleTableRecord
  2
EXCADVERT
 70
     4
 40
0.0
 41
1.0
 50
0.0
 71
     0
 42
0.286885
  3
monotxt
  4
extfont
  0
STYLE
  5
2BB
330
3
100
AcDbSymbolTableRecord
100
AcDbTextStyleTableRecord
  2
EXCADDIM1
 70
     0
 40
0.0
 41
0.63
 50
0.0
 71
     0
 42
0.2
  3
monotxt
  4
extfont
  0
STYLE
  5
3CD
330
3
100
AcDbSymbolTableRecord
100
AcDbTextStyleTableRecord
  2
EXCADTTF1
 70
     0
 40
0.0
 41
1.0
 50
0.0
 71
     0
 42
0.2
  3
MS Mincho.ttf
  4

1001
ACAD
1000
MS Mincho
1071
    32785
  0
ENDTAB
  0
TABLE
  2
VIEW
  5
6
330
0
100
AcDbSymbolTable
 70
     0
  0
ENDTAB
  0
TABLE
  2
UCS
  5
7
330
0
100
AcDbSymbolTable
 70
     0
  0
ENDTAB
  0
TABLE
  2
APPID
  5
9
330
0
100
AcDbSymbolTable
 70
     1
  0
APPID
  5
12
330
9
100
AcDbSymbolTableRecord
100
AcDbRegAppTableRecord
  2
ACAD
 70
     0
  0
ENDTAB
  0
TABLE
  2
DIMSTYLE
  5
A
330
0
100
AcDbSymbolTable
 70
     1
100
AcDbDimStyleTable
  0
DIMSTYLE
105
27
102
{ACAD_REACTORS
330
2BC
330
2C8
330
2D3
330
2DD
330
2EA
330
2F6
330
302
330
30E
330
31A
330
327
330
332
330
33D
330
347
330
350
330
359
330
364
330
370
330
37C
330
38C
330
398
330
3A4
330
3B0
330
3BC
330
3CC
102
}
330
A
100
AcDbSymbolTableRecord
100
AcDbDimStyleTableRecord
  2
Standard
 70
     0
172
     1
340
11
  0
ENDTAB
  0
TABLE
  2
BLOCK_RECORD
  5
1
330
0
100
AcDbSymbolTable
 70
    38
  0
BLOCK_RECORD
  5
1F
102
{ACAD_XDICTIONARY
360
55F
102
}
330
1
100
AcDbSymbolTableRecord
100
AcDbBlockTableRecord
  2
*Model_Space
340
22
  0
BLOCK_RECORD
  5
73
330
1
100
AcDbSymbolTableRecord
100
AcDbBlockTableRecord
  2
*Paper_Space
340
74
  0
BLOCK_RECORD
  5
30
330
1
100
AcDbSymbolTableRecord
100
AcDbBlockTableRecord
  2
_EX_NORM
340
0
  0
BLOCK_RECORD
  5
31
330
1
100
AcDbSymbolTableRecord
100
AcDbBlockTableRecord
  2
_EX_BNORM
340
0
  0
BLOCK_RECORD
  5
32
330
1
100
AcDbSymbolTableRecord
100
AcDbBlockTableRecord
  2
_EX_BCIR
340
0
  0
BLOCK_RECORD
  5
33
330
1
100
AcDbSymbolTableRecord
100
AcDbBlockTableRecord
  2
_EX_RCIVIL
340
0
  0
BLOCK_RECORD
  5
34
330
1
100
AcDbSymbolTableRecord
100
AcDbBlockTableRecord
  2
_EX_SLANT
340
0
  0
BLOCK_RECORD
  5
35
330
1
100
AcDbSymbolTableRecord
100
AcDbBlockTableRecord
  2
_EX_NONE
340
0
  0
BLOCK_RECORD
  5
36
330
1
100
AcDbSymbolTableRecord
100
AcDbBlockTableRecord
  2
_EX_CIVIL
340
0
  0
BLOCK_RECORD
  5
37
330
1
100
AcDbSymbolTableRecord
100
AcDbBlockTableRecord
  2
_EX_WCIR
340
0
  0
BLOCK_RECORD
  5
38
330
1
100
AcDbSymbolTableRecord
100
AcDbBlockTableRecord
  2
_EX_WCIR2
340
0
  0
BLOCK_RECORD
  5
39
330
1
100
AcDbSymbolTableRecord
100
AcDbBlockTableRecord
  2
_EX_WNORM
340
0
  0
BLOCK_RECORD
  5
3A
330
1
100
AcDbSymbolTableRecord
100
AcDbBlockTableRecord
  2
_EX_NNORM
340
0
  0
BLOCK_RECORD
  5
3B
330
1
100
AcDbSymbolTableRecord
100
AcDbBlockTableRecord
  2
_EX_BBOX
340
0
  0
BLOCK_RECORD
  5
3C
330
1
100
AcDbSymbolTableRecord
100
AcDbBlockTableRecord
  2
_EX_WBOX
340
0
  0
BLOCK_RECORD
  5
3D
330
1
100
AcDbSymbolTableRecord
100
AcDbBlockTableRecord
  2
_EX_INTEGRAL
340
0
  0
BLOCK_RECORD
  5
2B0
330
1
100
AcDbSymbolTableRecord
100
AcDbBlockTableRecord
  2
*D14
340
0
  0
BLOCK_RECORD
  5
2BD
330
1
100
AcDbSymbolTableRecord
100
AcDbBlockTableRecord
  2
*D15
340
0
  0
BLOCK_RECORD
  5
2C9
330
1
100
AcDbSymbolTableRecord
100
AcDbBlockTableRecord
  2
*D16
340
0
  0
BLOCK_RECORD
  5
2D4
330
1
100
AcDbSymbolTableRecord
100
AcDbBlockTableRecord
  2
*D17
340
0
  0
BLOCK_RECORD
  5
2DF
330
1
100
AcDbSymbolTableRecord
100
AcDbBlockTableRecord
  2
*D18
340
0
  0
BLOCK_RECORD
  5
2EB
330
1
100
AcDbSymbolTableRecord
100
AcDbBlockTableRecord
  2
*D19
340
0
  0
BLOCK_RECORD
  5
2F7
330
1
100
AcDbSymbolTableRecord
100
AcDbBlockTableRecord
  2
*D20
340
0
  0
BLOCK_RECORD
  5
303
330
1
100
AcDbSymbolTableRecord
100
AcDbBlockTableRecord
  2
*D21
340
0
  0
BLOCK_RECORD
  5
30F
330
1
100
AcDbSymbolTableRecord
100
AcDbBlockTableRecord
  2
*D22
340
0
  0
BLOCK_RECORD
  5
31C
330
1
100
AcDbSymbolTableRecord
100
AcDbBlockTableRecord
  2
*D23
340
0
  0
BLOCK_RECORD
  5
328
330
1
100
AcDbSymbolTableRecord
100
AcDbBlockTableRecord
  2
*D24
340
0
  0
BLOCK_RECORD
  5
333
330
1
100
AcDbSymbolTableRecord
100
AcDbBlockTableRecord
  2
*D25
340
0
  0
BLOCK_RECORD
  5
33E
330
1
100
AcDbSymbolTableRecord
100
AcDbBlockTableRecord
  2
*D26
340
0
  0
BLOCK_RECORD
  5
348
330
1
100
AcDbSymbolTableRecord
100
AcDbBlockTableRecord
  2
*D27
340
0
  0
BLOCK_RECORD
  5
351
330
1
100
AcDbSymbolTableRecord
100
AcDbBlockTableRecord
  2
*D28
340
0
  0
BLOCK_RECORD
  5
35A
330
1
100
AcDbSymbolTableRecord
100
AcDbBlockTableRecord
  2
*D29
340
0
  0
BLOCK_RECORD
  5
365
330
1
100
AcDbSymbolTableRecord
100
AcDbBlockTableRecord
  2
*D30
340
0
  0
BLOCK_RECORD
  5
371
330
1
100
AcDbSymbolTableRecord
100
AcDbBlockTableRecord
  2
*D31
340
0
  0
BLOCK_RECORD
  5
381
330
1
100
AcDbSymbolTableRecord
100
AcDbBlockTableRecord
  2
*D32
340
0
  0
BLOCK_RECORD
  5
38D
330
1
100
AcDbSymbolTableRecord
100
AcDbBlockTableRecord
  2
*D33
340
0
  0
BLOCK_RECORD
  5
399
330
1
100
AcDbSymbolTableRecord
100
AcDbBlockTableRecord
  2
*D34
340
0
  0
BLOCK_RECORD
  5
3A5
330
1
100
AcDbSymbolTableRecord
100
AcDbBlockTableRecord
  2
*D35
340
0
  0
BLOCK_RECORD
  5
3B1
330
1
100
AcDbSymbolTableRecord
100
AcDbBlockTableRecord
  2
*D36
340
0
  0
BLOCK_RECORD
  5
3C1
330
1
100
AcDbSymbolTableRecord
100
AcDbBlockTableRecord
  2
*D37
340
0
  0
ENDTAB
  0
ENDSEC
  0
SECTION
  2
BLOCKS
  0
BLOCK
  5
20
330
1F
100
AcDbEntity
  8
0
100
AcDbBlockBegin
  2
*Model_Space
 70
     0
 10
0.0
 20
0.0
 30
0.0
  3
*Model_Space
  1

  0
ENDBLK
  5
21
330
1F
100
AcDbEntity
  8
0
100
AcDbBlockEnd
  0
BLOCK
  5
75
330
73
100
AcDbEntity
 67
     1
  8
0
100
AcDbBlockBegin
  2
*Paper_Space
 70
     0
 10
0.0
 20
0.0
 30
0.0
  3
*Paper_Space
  1

  0
ENDBLK
  5
76
330
73
100
AcDbEntity
 67
     1
  8
0
100
AcDbBlockEnd
  0
BLOCK
  5
4E7
330
30
100
AcDbEntity
  8
0
100
AcDbBlockBegin
  2
_EX_NORM
 70
     0
 10
0.0
 20
0.0
 30
0.0
  3
_EX_NORM
  1

  0
LINE
  5
3F
330
30
100
AcDbEntity
  8
0
  6
Continuous
 62
     0
100
AcDbLine
 10
0.0
 20
0.0
 30
0.0
 11
-1.0
 21
0.0
 31
0.0
  0
LINE
  5
40
330
30
100
AcDbEntity
  8
0
  6
Continuous
 62
     0
100
AcDbLine
 10
0.0
 20
0.0
 30
0.0
 11
-1.0
 21
0.166667
 31
0.0
  0
LINE
  5
41
330
30
100
AcDbEntity
  8
0
  6
Continuous
 62
     0
100
AcDbLine
 10
0.0
 20
0.0
 30
0.0
 11
-1.0
 21
-0.166667
 31
0.0
  0
ENDBLK
  5
4E8
330
30
100
AcDbEntity
  8
0
100
AcDbBlockEnd
  0
BLOCK
  5
4E9
330
31
100
AcDbEntity
  8
0
100
AcDbBlockBegin
  2
_EX_BNORM
 70
     0
 10
0.0
 20
0.0
 30
0.0
  3
_EX_BNORM
  1

  0
LINE
  5
44
330
31
100
AcDbEntity
  8
0
  6
Continuous
 62
     0
100
AcDbLine
 10
0.0
 20
0.0
 30
0.0
 11
-1.0
 21
0.0
 31
0.0
  0
LINE
  5
45
330
31
100
AcDbEntity
  8
0
  6
Continuous
 62
     0
100
AcDbLine
 10
0.0
 20
0.0
 30
0.0
 11
-1.0
 21
0.166667
 31
0.0
  0
LINE
  5
46
330
31
100
AcDbEntity
  8
0
  6
Continuous
 62
     0
100
AcDbLine
 10
0.0
 20
0.0
 30
0.0
 11
-1.0
 21
-0.166667
 31
0.0
  0
LINE
  5
47
330
31
100
AcDbEntity
  8
0
  6
Continuous
 62
     0
100
AcDbLine
 10
0.0
 20
0.0
 30
0.0
 11
-1.0
 21
0.083333
 31
0.0
  0
LINE
  5
48
330
31
100
AcDbEntity
  8
0
  6
Continuous
 62
     0
100
AcDbLine
 10
0.0
 20
0.0
 30
0.0
 11
-1.0
 21
-0.083333
 31
0.0
  0
LINE
  5
49
330
31
100
AcDbEntity
  8
0
  6
Continuous
 62
     0
100
AcDbLine
 10
-1.0
 20
0.166667
 30
0.0
 11
-1.0
 21
-0.166667
 31
0.0
  0
ENDBLK
  5
4EA
330
31
100
AcDbEntity
  8
0
100
AcDbBlockEnd
  0
BLOCK
  5
4EB
330
32
100
AcDbEntity
  8
0
100
AcDbBlockBegin
  2
_EX_BCIR
 70
     0
 10
0.0
 20
0.0
 30
0.0
  3
_EX_BCIR
  1

  0
LINE
  5
4C
330
32
100
AcDbEntity
  8
0
  6
Continuous
 62
     0
100
AcDbLine
 10
0.0
 20
0.0
 30
0.0
 11
-1.0
 21
0.0
 31
0.0
  0
CIRCLE
  5
4D
330
32
100
AcDbEntity
  8
0
  6
Continuous
 62
     0
100
AcDbCircle
 10
0.0
 20
0.0
 30
0.0
 40
0.5
  0
CIRCLE
  5
4E
330
32
100
AcDbEntity
  8
0
  6
Continuous
 62
     0
100
AcDbCircle
 10
0.0
 20
0.0
 30
0.0
 40
0.25
  0
ENDBLK
  5
4EC
330
32
100
AcDbEntity
  8
0
100
AcDbBlockEnd
  0
BLOCK
  5
4ED
330
33
100
AcDbEntity
  8
0
100
AcDbBlockBegin
  2
_EX_RCIVIL
 70
     0
 10
0.0
 20
0.0
 30
0.0
  3
_EX_RCIVIL
  1

  0
LINE
  5
51
330
33
100
AcDbEntity
  8
0
  6
Continuous
 62
     0
100
AcDbLine
 10
0.0
 20
0.0
 30
0.0
 11
-1.0
 21
0.0
 31
0.0
  0
LINE
  5
52
330
33
100
AcDbEntity
  8
0
  6
Continuous
 62
     0
100
AcDbLine
 10
-1.0
 20
-0.25
 30
0.0
 11
0.0
 21
-0.25
 31
0.0
  0
LINE
  5
53
330
33
100
AcDbEntity
  8
0
  6
Continuous
 62
     0
100
AcDbLine
 10
-1.0
 20
-0.125
 30
0.0
 11
0.0
 21
-0.125
 31
0.0
  0
ENDBLK
  5
4EE
330
33
100
AcDbEntity
  8
0
100
AcDbBlockEnd
  0
BLOCK
  5
4EF
330
34
100
AcDbEntity
  8
0
100
AcDbBlockBegin
  2
_EX_SLANT
 70
     0
 10
0.0
 20
0.0
 30
0.0
  3
_EX_SLANT
  1

  0
LINE
  5
56
330
34
100
AcDbEntity
  8
0
  6
Continuous
 62
     0
100
AcDbLine
 10
0.0
 20
0.0
 30
0.0
 11
-1.0
 21
0.0
 31
0.0
  0
LINE
  5
57
330
34
100
AcDbEntity
  8
0
  6
Continuous
 62
     0
100
AcDbLine
 10
0.707107
 20
0.707107
 30
0.0
 11
-0.707107
 21
-0.707107
 31
0.0
  0
ENDBLK
  5
4F0
330
34
100
AcDbEntity
  8
0
100
AcDbBlockEnd
  0
BLOCK
  5
4F1
330
35
100
AcDbEntity
  8
0
100
AcDbBlockBegin
  2
_EX_NONE
 70
     0
 10
0.0
 20
0.0
 30
0.0
  3
_EX_NONE
  1

  0
LINE
  5
533
330
35
100
AcDbEntity
  8
0
  6
Continuous
 62
     0
100
AcDbLine
 10
0.0
 20
0.0
 30
0.0
 11
-1.0
 21
0.0
 31
0.0
  0
ENDBLK
  5
4F2
330
35
100
AcDbEntity
  8
0
100
AcDbBlockEnd
  0
BLOCK
  5
4F3
330
36
100
AcDbEntity
  8
0
100
AcDbBlockBegin
  2
_EX_CIVIL
 70
     0
 10
0.0
 20
0.0
 30
0.0
  3
_EX_CIVIL
  1

  0
LINE
  5
5D
330
36
100
AcDbEntity
  8
0
  6
Continuous
 62
     0
100
AcDbLine
 10
0.0
 20
0.0
 30
0.0
 11
-1.0
 21
0.0
 31
0.0
  0
LINE
  5
534
330
36
100
AcDbEntity
  8
0
  6
Continuous
 62
     0
100
AcDbLine
 10
-1.0
 20
0.25
 30
0.0
 11
0.0
 21
0.25
 31
0.0
  0
LINE
  5
5F
330
36
100
AcDbEntity
  8
0
  6
Continuous
 62
     0
100
AcDbLine
 10
-1.0
 20
0.125
 30
0.0
 11
0.0
 21
0.125
 31
0.0
  0
ENDBLK
  5
4F4
330
36
100
AcDbEntity
  8
0
100
AcDbBlockEnd
  0
BLOCK
  5
4F5
330
37
100
AcDbEntity
  8
0
100
AcDbBlockBegin
  2
_EX_WCIR
 70
     0
 10
0.0
 20
0.0
 30
0.0
  3
_EX_WCIR
  1

  0
LINE
  5
62
330
37
100
AcDbEntity
  8
0
  6
Continuous
 62
     0
100
AcDbLine
 10
0.0
 20
0.0
 30
0.0
 11
-1.0
 21
0.0
 31
0.0
  0
CIRCLE
  5
63
330
37
100
AcDbEntity
  8
0
  6
Continuous
 62
     0
100
AcDbCircle
 10
0.0
 20
0.0
 30
0.0
 40
0.5
  0
ENDBLK
  5
4F6
330
37
100
AcDbEntity
  8
0
100
AcDbBlockEnd
  0
BLOCK
  5
4F7
330
38
100
AcDbEntity
  8
0
100
AcDbBlockBegin
  2
_EX_WCIR2
 70
     0
 10
0.0
 20
0.0
 30
0.0
  3
_EX_WCIR2
  1

  0
LINE
  5
66
330
38
100
AcDbEntity
  8
0
  6
Continuous
 62
     0
100
AcDbLine
 10
-0.5
 20
0.0
 30
0.0
 11
-1.0
 21
0.0
 31
0.0
  0
CIRCLE
  5
67
330
38
100
AcDbEntity
  8
0
  6
Continuous
 62
     0
100
AcDbCircle
 10
0.0
 20
0.0
 30
0.0
 40
0.5
  0
ENDBLK
  5
4F8
330
38
100
AcDbEntity
  8
0
100
AcDbBlockEnd
  0
BLOCK
  5
4F9
330
39
100
AcDbEntity
  8
0
100
AcDbBlockBegin
  2
_EX_WNORM
 70
     0
 10
0.0
 20
0.0
 30
0.0
  3
_EX_WNORM
  1

  0
LINE
  5
6A
330
39
100
AcDbEntity
  8
0
  6
Continuous
 62
     0
100
AcDbLine
 10
-1.0
 20
0.0
 30
0.0
 11
-1.0
 21
0.0
 31
0.0
  0
LINE
  5
535
330
39
100
AcDbEntity
  8
0
  6
Continuous
 62
     0
100
AcDbLine
 10
0.0
 20
0.0
 30
0.0
 11
-1.0
 21
0.166667
 31
0.0
  0
LINE
  5
536
330
39
100
AcDbEntity
  8
0
  6
Continuous
 62
     0
100
AcDbLine
 10
0.0
 20
0.0
 30
0.0
 11
-1.0
 21
-0.166667
 31
0.0
  0
LINE
  5
6D
330
39
100
AcDbEntity
  8
0
  6
Continuous
 62
     0
100
AcDbLine
 10
-1.0
 20
0.166667
 30
0.0
 11
-1.0
 21
-0.166667
 31
0.0
  0
ENDBLK
  5
4FA
330
39
100
AcDbEntity
  8
0
100
AcDbBlockEnd
  0
BLOCK
  5
4FB
330
3A
100
AcDbEntity
  8
0
100
AcDbBlockBegin
  2
_EX_NNORM
 70
     0
 10
0.0
 20
0.0
 30
0.0
  3
_EX_NNORM
  1

  0
LINE
  5
70
330
3A
100
AcDbEntity
  8
0
  6
Continuous
 62
     0
100
AcDbLine
 10
0.0
 20
0.0
 30
0.0
 11
-1.0
 21
0.0
 31
0.0
  0
LINE
  5
71
330
3A
100
AcDbEntity
  8
0
  6
Continuous
 62
     0
100
AcDbLine
 10
0.0
 20
0.0
 30
0.0
 11
-1.0
 21
0.166667
 31
0.0
  0
LINE
  5
72
330
3A
100
AcDbEntity
  8
0
  6
Continuous
 62
     0
100
AcDbLine
 10
0.0
 20
0.0
 30
0.0
 11
-1.0
 21
-0.166667
 31
0.0
  0
LINE
  5
537
330
3A
100
AcDbEntity
  8
0
  6
Continuous
 62
     0
100
AcDbLine
 10
-1.0
 20
0.166667
 30
0.0
 11
-1.0
 21
-0.166667
 31
0.0
  0
ENDBLK
  5
4FC
330
3A
100
AcDbEntity
  8
0
100
AcDbBlockEnd
  0
BLOCK
  5
4FD
330
3B
100
AcDbEntity
  8
0
100
AcDbBlockBegin
  2
_EX_BBOX
 70
     0
 10
0.0
 20
0.0
 30
0.0
  3
_EX_BBOX
  1

  0
LINE
  5
538
330
3B
100
AcDbEntity
  8
0
  6
Continuous
 62
     0
100
AcDbLine
 10
0.0
 20
0.0
 30
0.0
 11
-1.0
 21
0.0
 31
0.0
  0
LINE
  5
77
330
3B
100
AcDbEntity
  8
0
  6
Continuous
 62
     0
100
AcDbLine
 10
-0.5
 20
0.5
 30
0.0
 11
0.5
 21
0.5
 31
0.0
  0
LINE
  5
78
330
3B
100
AcDbEntity
  8
0
  6
Continuous
 62
     0
100
AcDbLine
 10
0.5
 20
0.5
 30
0.0
 11
0.5
 21
-0.5
 31
0.0
  0
LINE
  5
79
330
3B
100
AcDbEntity
  8
0
  6
Continuous
 62
     0
100
AcDbLine
 10
0.5
 20
-0.5
 30
0.0
 11
-0.5
 21
-0.5
 31
0.0
  0
LINE
  5
7A
330
3B
100
AcDbEntity
  8
0
  6
Continuous
 62
     0
100
AcDbLine
 10
-0.5
 20
-0.5
 30
0.0
 11
-0.5
 21
0.5
 31
0.0
  0
LINE
  5
7B
330
3B
100
AcDbEntity
  8
0
  6
Continuous
 62
     0
100
AcDbLine
 10
-0.25
 20
0.25
 30
0.0
 11
0.25
 21
0.25
 31
0.0
  0
LINE
  5
7C
330
3B
100
AcDbEntity
  8
0
  6
Continuous
 62
     0
100
AcDbLine
 10
0.25
 20
0.25
 30
0.0
 11
0.25
 21
-0.25
 31
0.0
  0
LINE
  5
7D
330
3B
100
AcDbEntity
  8
0
  6
Continuous
 62
     0
100
AcDbLine
 10
0.25
 20
-0.25
 30
0.0
 11
-0.25
 21
-0.25
 31
0.0
  0
LINE
  5
7E
330
3B
100
AcDbEntity
  8
0
  6
Continuous
 62
     0
100
AcDbLine
 10
-0.25
 20
-0.25
 30
0.0
 11
-0.25
 21
0.25
 31
0.0
  0
ENDBLK
  5
4FE
330
3B
100
AcDbEntity
  8
0
100
AcDbBlockEnd
  0
BLOCK
  5
4FF
330
3C
100
AcDbEntity
  8
0
100
AcDbBlockBegin
  2
_EX_WBOX
 70
     0
 10
0.0
 20
0.0
 30
0.0
  3
_EX_WBOX
  1

  0
LINE
  5
81
330
3C
100
AcDbEntity
  8
0
  6
Continuous
 62
     0
100
AcDbLine
 10
-0.5
 20
0.0
 30
0.0
 11
-1.0
 21
0.0
 31
0.0
  0
LINE
  5
82
330
3C
100
AcDbEntity
  8
0
  6
Continuous
 62
     0
100
AcDbLine
 10
-0.5
 20
0.5
 30
0.0
 11
0.5
 21
0.5
 31
0.0
  0
LINE
  5
83
330
3C
100
AcDbEntity
  8
0
  6
Continuous
 62
     0
100
AcDbLine
 10
0.5
 20
0.5
 30
0.0
 11
0.5
 21
-0.5
 31
0.0
  0
LINE
  5
84
330
3C
100
AcDbEntity
  8
0
  6
Continuous
 62
     0
100
AcDbLine
 10
0.5
 20
-0.5
 30
0.0
 11
-0.5
 21
-0.5
 31
0.0
  0
LINE
  5
85
330
3C
100
AcDbEntity
  8
0
  6
Continuous
 62
     0
100
AcDbLine
 10
-0.5
 20
-0.5
 30
0.0
 11
-0.5
 21
0.5
 31
0.0
  0
ENDBLK
  5
500
330
3C
100
AcDbEntity
  8
0
100
AcDbBlockEnd
  0
BLOCK
  5
501
330
3D
100
AcDbEntity
  8
0
100
AcDbBlockBegin
  2
_EX_INTEGRAL
 70
     0
 10
0.0
 20
0.0
 30
0.0
  3
_EX_INTEGRAL
  1

  0
LINE
  5
88
330
3D
100
AcDbEntity
  8
0
  6
Continuous
 62
     0
100
AcDbLine
 10
0.0
 20
0.0
 30
0.0
 11
-1.0
 21
0.0
 31
0.0
  0
ARC
  5
89
330
3D
100
AcDbEntity
  8
0
  6
Continuous
 62
     0
100
AcDbCircle
 10
0.542115
 20
0.164992
 30
0.0
 40
0.56667
100
AcDbArc
 50
73.07249
 51
196.927513
  0
ARC
  5
8A
330
3D
100
AcDbEntity
  8
0
  6
Continuous
 62
     0
100
AcDbCircle
 10
-0.542115
 20
-0.164992
 30
0.0
 40
0.56667
100
AcDbArc
 50
253.072487
 51
16.927513
  0
ENDBLK
  5
502
330
3D
100
AcDbEntity
  8
0
100
AcDbBlockEnd
  0
BLOCK
  5
503
330
2B0
100
AcDbEntity
  8
0
100
AcDbBlockBegin
  2
*D14
 70
     1
 10
0.0
 20
0.0
 30
0.0
  3
*D14
  1

  0
LINE
  5
2B2
330
2B0
100
AcDbEntity
  8
作図線（太線）
  6
Continuous
 62
     1
100
AcDbLine
 10
581.1
 20
705.7
 30
0.0
 11
581.1
 21
800.8
 31
0.0
  0
LINE
  5
2B3
330
2B0
100
AcDbEntity
  8
作図線（太線）
  6
Continuous
 62
     1
100
AcDbLine
 10
781.1
 20
705.7
 30
0.0
 11
781.1
 21
800.8
 31
0.0
  0
LINE
  5
2B4
330
2B0
100
AcDbEntity
  8
作図線（太線）
  6
Continuous
 62
     1
100
AcDbLine
 10
581.1
 20
797.3
 30
0.0
 11
781.1
 21
797.3
 31
0.0
  0
LINE
  5
2B5
330
2B0
100
AcDbEntity
  8
作図線（太線）
  6
Continuous
 62
     1
100
AcDbLine
 10
602.1
 20
800.8
 30
0.0
 11
581.1
 21
797.3
 31
0.0
  0
LINE
  5
2B6
330
2B0
100
AcDbEntity
  8
作図線（太線）
  6
Continuous
 62
     1
100
AcDbLine
 10
581.1
 20
797.3
 30
0.0
 11
602.1
 21
793.8
 31
0.0
  0
LINE
  5
2B7
330
2B0
100
AcDbEntity
  8
作図線（太線）
  6
Continuous
 62
     1
100
AcDbLine
 10
760.1
 20
793.8
 30
0.0
 11
781.1
 21
797.3
 31
0.0
  0
LINE
  5
2B8
330
2B0
100
AcDbEntity
  8
作図線（太線）
  6
Continuous
 62
     1
100
AcDbLine
 10
781.1
 20
797.3
 30
0.0
 11
760.1
 21
800.8
 31
0.0
  0
TEXT
  5
2B9
330
2B0
100
AcDbEntity
  8
作図線（太線）
  6
Continuous
 62
     1
100
AcDbText
 10
657.5506016821
 20
800.8
 30
0.0
 40
27.999998
  1
100
 41
0.63
  7
EXCADSTD
 72
     1
 11
681.1
 21
800.8
 31
0.0
100
AcDbText
  0
ENDBLK
  5
504
330
2B0
100
AcDbEntity
  8
0
100
AcDbBlockEnd
  0
BLOCK
  5
505
330
2BD
100
AcDbEntity
  8
0
100
AcDbBlockBegin
  2
*D15
 70
     1
 10
0.0
 20
0.0
 30
0.0
  3
*D15
  1

  0
LINE
  5
2BF
330
2BD
100
AcDbEntity
  8
作図線（太線）
  6
Continuous
 62
     1
100
AcDbLine
 10
744.6
 20
742.2
 30
0.0
 11
924.0
 21
742.2
 31
0.0
  0
LINE
  5
2C0
330
2BD
100
AcDbEntity
  8
作図線（太線）
  6
Continuous
 62
     1
100
AcDbLine
 10
742.419996
 20
662.2
 30
0.0
 11
922.499998
 21
662.2
 31
0.0
  0
LINE
  5
2C1
330
2BD
100
AcDbEntity
  8
作図線（太線）
  6
Continuous
 62
     1
100
AcDbLine
 10
920.5
 20
742.2
 30
0.0
 11
920.5
 21
662.2
 31
0.0
  0
LINE
  5
2C2
330
2BD
100
AcDbEntity
  8
作図線（太線）
  6
Continuous
 62
     1
100
AcDbLine
 10
924.0
 20
721.2
 30
0.0
 11
920.5
 21
742.2
 31
0.0
  0
LINE
  5
2C3
330
2BD
100
AcDbEntity
  8
作図線（太線）
  6
Continuous
 62
     1
100
AcDbLine
 10
920.5
 20
742.2
 30
0.0
 11
917.0
 21
721.2
 31
0.0
  0
LINE
  5
2C4
330
2BD
100
AcDbEntity
  8
作図線（太線）
  6
Continuous
 62
     1
100
AcDbLine
 10
917.0
 20
683.2
 30
0.0
 11
920.5
 21
662.2
 31
0.0
  0
LINE
  5
2C5
330
2BD
100
AcDbEntity
  8
作図線（太線）
  6
Continuous
 62
     1
100
AcDbLine
 10
920.5
 20
662.2
 30
0.0
 11
924.0
 21
683.2
 31
0.0
  0
TEXT
  5
2C6
330
2BD
100
AcDbEntity
  8
作図線（太線）
  6
Continuous
 62
     1
100
AcDbText
 10
917.0
 20
687.4706010521
 30
0.0
 40
27.999998
  1
40
 50
90.0
 41
0.63
  7
EXCADSTD
 72
     1
 11
917.0
 21
702.2
 31
0.0
100
AcDbText
  0
ENDBLK
  5
506
330
2BD
100
AcDbEntity
  8
0
100
AcDbBlockEnd
  0
BLOCK
  5
507
330
2C9
100
AcDbEntity
  8
0
100
AcDbBlockBegin
  2
*D16
 70
     1
 10
0.0
 20
0.0
 30
0.0
  3
*D16
  1

  0
LINE
  5
2CB
330
2C9
100
AcDbEntity
  8
作図線（太線）
  6
Continuous
 62
     1
100
AcDbLine
 10
920.5
 20
662.2
 30
0.0
 11
920.5
 21
582.2
 31
0.0
  0
LINE
  5
2CC
330
2C9
100
AcDbEntity
  8
作図線（太線）
  6
Continuous
 62
     1
100
AcDbLine
 10
924.0
 20
641.2
 30
0.0
 11
920.5
 21
662.2
 31
0.0
  0
LINE
  5
2CD
330
2C9
100
AcDbEntity
  8
作図線（太線）
  6
Continuous
 62
     1
100
AcDbLine
 10
920.5
 20
662.2
 30
0.0
 11
917.0
 21
641.2
 31
0.0
  0
LINE
  5
2CE
330
2C9
100
AcDbEntity
  8
作図線（太線）
  6
Continuous
 62
     1
100
AcDbLine
 10
917.0
 20
603.2
 30
0.0
 11
920.5
 21
582.2
 31
0.0
  0
LINE
  5
2CF
330
2C9
100
AcDbEntity
  8
作図線（太線）
  6
Continuous
 62
     1
100
AcDbLine
 10
920.5
 20
582.2
 30
0.0
 11
924.0
 21
603.2
 31
0.0
  0
TEXT
  5
2D0
330
2C9
100
AcDbEntity
  8
作図線（太線）
  6
Continuous
 62
     1
100
AcDbText
 10
917.0
 20
607.4706010521
 30
0.0
 40
27.999998
  1
40
 50
90.0
 41
0.63
  7
EXCADSTD
 72
     1
 11
917.0
 21
622.2
 31
0.0
100
AcDbText
  0
LINE
  5
2D1
330
2C9
100
AcDbEntity
  8
作図線（太線）
  6
Continuous
 62
     1
100
AcDbLine
 10
774.6
 20
582.2
 30
0.0
 11
924.0
 21
582.2
 31
0.0
  0
ENDBLK
  5
508
330
2C9
100
AcDbEntity
  8
0
100
AcDbBlockEnd
  0
BLOCK
  5
509
330
2D4
100
AcDbEntity
  8
0
100
AcDbBlockBegin
  2
*D17
 70
     1
 10
0.0
 20
0.0
 30
0.0
  3
*D17
  1

  0
LINE
  5
2D6
330
2D4
100
AcDbEntity
  8
作図線（太線）
  6
Continuous
 62
     1
100
AcDbLine
 10
521.1
 20
517.3
 30
0.0
 11
841.1
 21
517.3
 31
0.0
  0
LINE
  5
2D7
330
2D4
100
AcDbEntity
  8
作図線（太線）
  6
Continuous
 62
     1
100
AcDbLine
 10
542.1
 20
520.8
 30
0.0
 11
521.1
 21
517.3
 31
0.0
  0
LINE
  5
2D8
330
2D4
100
AcDbEntity
  8
作図線（太線）
  6
Continuous
 62
     1
100
AcDbLine
 10
521.1
 20
517.3
 30
0.0
 11
542.1
 21
513.8
 31
0.0
  0
LINE
  5
2D9
330
2D4
100
AcDbEntity
  8
作図線（太線）
  6
Continuous
 62
     1
100
AcDbLine
 10
820.1
 20
513.8
 30
0.0
 11
841.1
 21
517.3
 31
0.0
  0
LINE
  5
2DA
330
2D4
100
AcDbEntity
  8
作図線（太線）
  6
Continuous
 62
     1
100
AcDbLine
 10
841.1
 20
517.3
 30
0.0
 11
820.1
 21
520.8
 31
0.0
  0
TEXT
  5
2DB
330
2D4
100
AcDbEntity
  8
作図線（太線）
  6
Continuous
 62
     1
100
AcDbText
 10
657.5506016821
 20
520.8
 30
0.0
 40
27.999998
  1
160
 41
0.63
  7
EXCADSTD
 72
     1
 11
681.1
 21
520.8
 31
0.0
100
AcDbText
  0
ENDBLK
  5
50A
330
2D4
100
AcDbEntity
  8
0
100
AcDbBlockEnd
  0
BLOCK
  5
50B
330
2DF
100
AcDbEntity
  8
0
100
AcDbBlockBegin
  2
*D18
 70
     1
 10
0.0
 20
0.0
 30
0.0
  3
*D18
  1

  0
LINE
  5
2E1
330
2DF
100
AcDbEntity
  8
寸法線
  6
Continuous
 62
     1
100
AcDbLine
 10
557.0
 20
1724.022718
 30
0.0
 11
557.0
 21
1858.5
 31
0.0
  0
LINE
  5
2E2
330
2DF
100
AcDbEntity
  8
寸法線
  6
Continuous
 62
     1
100
AcDbLine
 10
817.0
 20
1724.022718
 30
0.0
 11
817.0
 21
1858.5
 31
0.0
  0
TEXT
  5
2E3
330
2DF
100
AcDbEntity
  8
寸法線
  6
Continuous
 62
     1
100
AcDbText
 10
680.9506016821
 20
1858.5
 30
0.0
 40
27.999998
  1
260
 41
0.63
  7
EXCADSTD
 72
     1
 11
704.5
 21
1858.5
 31
0.0
100
AcDbText
  0
LINE
  5
2E4
330
2DF
100
AcDbEntity
  8
寸法線
  6
Continuous
 62
     1
100
AcDbLine
 10
557.0
 20
1855.0
 30
0.0
 11
817.0
 21
1855.0
 31
0.0
  0
LINE
  5
2E5
330
2DF
100
AcDbEntity
  8
寸法線
  6
Continuous
 62
     1
100
AcDbLine
 10
578.0
 20
1858.5
 30
0.0
 11
557.0
 21
1855.0
 31
0.0
  0
LINE
  5
2E6
330
2DF
100
AcDbEntity
  8
寸法線
  6
Continuous
 62
     1
100
AcDbLine
 10
557.0
 20
1855.0
 30
0.0
 11
578.0
 21
1851.5
 31
0.0
  0
LINE
  5
2E7
330
2DF
100
AcDbEntity
  8
寸法線
  6
Continuous
 62
     1
100
AcDbLine
 10
796.0
 20
1851.5
 30
0.0
 11
817.0
 21
1855.0
 31
0.0
  0
LINE
  5
2E8
330
2DF
100
AcDbEntity
  8
寸法線
  6
Continuous
 62
     1
100
AcDbLine
 10
817.0
 20
1855.0
 30
0.0
 11
796.0
 21
1858.5
 31
0.0
  0
ENDBLK
  5
50C
330
2DF
100
AcDbEntity
  8
0
100
AcDbBlockEnd
  0
BLOCK
  5
50D
330
2EB
100
AcDbEntity
  8
0
100
AcDbBlockBegin
  2
*D19
 70
     1
 10
0.0
 20
0.0
 30
0.0
  3
*D19
  1

  0
LINE
  5
2ED
330
2EB
100
AcDbEntity
  8
寸法線
  6
Continuous
 62
     1
100
AcDbLine
 10
780.5
 20
1770.522718
 30
0.0
 11
943.5
 21
1770.522718
 31
0.0
  0
LINE
  5
2EE
330
2EB
100
AcDbEntity
  8
寸法線
  6
Continuous
 62
     1
100
AcDbLine
 10
865.5
 20
1011.0
 30
0.0
 11
943.5
 21
1011.0
 31
0.0
  0
TEXT
  5
2EF
330
2EB
100
AcDbEntity
  8
寸法線
  6
Continuous
 62
     1
100
AcDbText
 10
936.5
 20
1353.9506016821
 30
0.0
 40
27.999998
  1
760
 50
90.0
 41
0.63
  7
EXCADSTD
 72
     1
 11
936.5
 21
1377.5
 31
0.0
100
AcDbText
  0
LINE
  5
2F0
330
2EB
100
AcDbEntity
  8
寸法線
  6
Continuous
 62
     1
100
AcDbLine
 10
940.0
 20
1770.522718
 30
0.0
 11
940.0
 21
1011.0
 31
0.0
  0
LINE
  5
2F1
330
2EB
100
AcDbEntity
  8
寸法線
  6
Continuous
 62
     1
100
AcDbLine
 10
943.5
 20
1749.522718
 30
0.0
 11
940.0
 21
1770.522718
 31
0.0
  0
LINE
  5
2F2
330
2EB
100
AcDbEntity
  8
寸法線
  6
Continuous
 62
     1
100
AcDbLine
 10
940.0
 20
1770.522718
 30
0.0
 11
936.5
 21
1749.522718
 31
0.0
  0
LINE
  5
2F3
330
2EB
100
AcDbEntity
  8
寸法線
  6
Continuous
 62
     1
100
AcDbLine
 10
936.5
 20
1032.0
 30
0.0
 11
940.0
 21
1011.0
 31
0.0
  0
LINE
  5
2F4
330
2EB
100
AcDbEntity
  8
寸法線
  6
Continuous
 62
     1
100
AcDbLine
 10
940.0
 20
1011.0
 30
0.0
 11
943.5
 21
1032.0
 31
0.0
  0
ENDBLK
  5
50E
330
2EB
100
AcDbEntity
  8
0
100
AcDbBlockEnd
  0
BLOCK
  5
50F
330
2F7
100
AcDbEntity
  8
0
100
AcDbBlockBegin
  2
*D20
 70
     1
 10
0.0
 20
0.0
 30
0.0
  3
*D20
  1

  0
LINE
  5
2F9
330
2F7
100
AcDbEntity
  8
寸法線
  6
Continuous
 62
     1
100
AcDbLine
 10
508.5
 20
1011.0
 30
0.0
 11
445.2
 21
1011.0
 31
0.0
  0
LINE
  5
2FA
330
2F7
100
AcDbEntity
  8
寸法線
  6
Continuous
 62
     1
100
AcDbLine
 10
508.5
 20
1041.0
 30
0.0
 11
445.2
 21
1041.0
 31
0.0
  0
TEXT
  5
2FB
330
2F7
100
AcDbEntity
  8
寸法線
  6
Continuous
 62
     1
100
AcDbText
 10
445.2
 20
1015.6706010521
 30
0.0
 40
27.999998
  1
30
 50
90.0
 41
0.63
  7
EXCADSTD
 72
     1
 11
445.2
 21
1030.4
 31
0.0
100
AcDbText
  0
LINE
  5
2FC
330
2F7
100
AcDbEntity
  8
寸法線
  6
Continuous
 62
     1
100
AcDbLine
 10
448.7
 20
1005.9
 30
0.0
 11
448.7
 21
1076.0
 31
0.0
  0
LINE
  5
2FD
330
2F7
100
AcDbEntity
  8
寸法線
  6
Continuous
 62
     1
100
AcDbLine
 10
452.2
 20
990.0
 30
0.0
 11
448.7
 21
1011.0
 31
0.0
  0
LINE
  5
2FE
330
2F7
100
AcDbEntity
  8
寸法線
  6
Continuous
 62
     1
100
AcDbLine
 10
448.7
 20
1011.0
 30
0.0
 11
445.2
 21
990.0
 31
0.0
  0
LINE
  5
2FF
330
2F7
100
AcDbEntity
  8
寸法線
  6
Continuous
 62
     1
100
AcDbLine
 10
445.2
 20
1062.0
 30
0.0
 11
448.7
 21
1041.0
 31
0.0
  0
LINE
  5
300
330
2F7
100
AcDbEntity
  8
寸法線
  6
Continuous
 62
     1
100
AcDbLine
 10
448.7
 20
1041.0
 30
0.0
 11
452.2
 21
1062.0
 31
0.0
  0
ENDBLK
  5
510
330
2F7
100
AcDbEntity
  8
0
100
AcDbBlockEnd
  0
BLOCK
  5
511
330
303
100
AcDbEntity
  8
0
100
AcDbBlockBegin
  2
*D21
 70
     1
 10
0.0
 20
0.0
 30
0.0
  3
*D21
  1

  0
LINE
  5
305
330
303
100
AcDbEntity
  8
寸法線
  6
Continuous
 62
     1
100
AcDbLine
 10
1280.5
 20
1011.0
 30
0.0
 11
1006.5
 21
1011.0
 31
0.0
  0
LINE
  5
306
330
303
100
AcDbEntity
  8
寸法線
  6
Continuous
 62
     1
100
AcDbLine
 10
1123.5
 20
1089.0
 30
0.0
 11
1006.5
 21
1089.0
 31
0.0
  0
TEXT
  5
307
330
303
100
AcDbEntity
  8
寸法線
  6
Continuous
 62
     1
100
AcDbText
 10
1006.5
 20
1041.2706010521
 30
0.0
 40
27.999998
  1
78
 50
90.0
 41
0.63
  7
EXCADSTD
 72
     1
 11
1006.5
 21
1056.0
 31
0.0
100
AcDbText
  0
LINE
  5
308
330
303
100
AcDbEntity
  8
寸法線
  6
Continuous
 62
     1
100
AcDbLine
 10
1010.0
 20
1011.0
 30
0.0
 11
1010.0
 21
1089.0
 31
0.0
  0
LINE
  5
309
330
303
100
AcDbEntity
  8
寸法線
  6
Continuous
 62
     1
100
AcDbLine
 10
1006.5
 20
1032.0
 30
0.0
 11
1010.0
 21
1011.0
 31
0.0
  0
LINE
  5
30A
330
303
100
AcDbEntity
  8
寸法線
  6
Continuous
 62
     1
100
AcDbLine
 10
1010.0
 20
1011.0
 30
0.0
 11
1013.5
 21
1032.0
 31
0.0
  0
LINE
  5
30B
330
303
100
AcDbEntity
  8
寸法線
  6
Continuous
 62
     1
100
AcDbLine
 10
1013.5
 20
1068.0
 30
0.0
 11
1010.0
 21
1089.0
 31
0.0
  0
LINE
  5
30C
330
303
100
AcDbEntity
  8
寸法線
  6
Continuous
 62
     1
100
AcDbLine
 10
1010.0
 20
1089.0
 30
0.0
 11
1006.5
 21
1068.0
 31
0.0
  0
ENDBLK
  5
512
330
303
100
AcDbEntity
  8
0
100
AcDbBlockEnd
  0
BLOCK
  5
513
330
30F
100
AcDbEntity
  8
0
100
AcDbBlockBegin
  2
*D22
 70
     1
 10
0.0
 20
0.0
 30
0.0
  3
*D22
  1

  0
LINE
  5
311
330
30F
100
AcDbEntity
  8
寸法線
  6
Continuous
 62
     1
100
AcDbLine
 10
1284.0
 20
1007.5
 30
0.0
 11
1284.0
 21
933.5
 31
0.0
  0
LINE
  5
312
330
30F
100
AcDbEntity
  8
寸法線
  6
Continuous
 62
     1
100
AcDbLine
 10
1590.0
 20
1007.5
 30
0.0
 11
1590.0
 21
933.5
 31
0.0
  0
TEXT
  5
313
330
30F
100
AcDbEntity
  8
寸法線
  6
Continuous
 62
     1
100
AcDbText
 10
1409.9506016821
 20
940.5
 30
0.0
 40
27.999998
  1
306
 41
0.63
  7
EXCADSTD
 72
     1
 11
1433.5
 21
940.5
 31
0.0
100
AcDbText
  0
LINE
  5
314
330
30F
100
AcDbEntity
  8
寸法線
  6
Continuous
 62
     1
100
AcDbLine
 10
1284.0
 20
937.0
 30
0.0
 11
1590.0
 21
937.0
 31
0.0
  0
LINE
  5
315
330
30F
100
AcDbEntity
  8
寸法線
  6
Continuous
 62
     1
100
AcDbLine
 10
1305.0
 20
940.5
 30
0.0
 11
1284.0
 21
937.0
 31
0.0
  0
LINE
  5
316
330
30F
100
AcDbEntity
  8
寸法線
  6
Continuous
 62
     1
100
AcDbLine
 10
1284.0
 20
937.0
 30
0.0
 11
1305.0
 21
933.5
 31
0.0
  0
LINE
  5
317
330
30F
100
AcDbEntity
  8
寸法線
  6
Continuous
 62
     1
100
AcDbLine
 10
1569.0
 20
933.5
 30
0.0
 11
1590.0
 21
937.0
 31
0.0
  0
LINE
  5
318
330
30F
100
AcDbEntity
  8
寸法線
  6
Continuous
 62
     1
100
AcDbLine
 10
1590.0
 20
937.0
 30
0.0
 11
1569.0
 21
940.5
 31
0.0
  0
ENDBLK
  5
514
330
30F
100
AcDbEntity
  8
0
100
AcDbBlockEnd
  0
BLOCK
  5
515
330
31C
100
AcDbEntity
  8
0
100
AcDbBlockBegin
  2
*D23
 70
     1
 10
0.0
 20
0.0
 30
0.0
  3
*D23
  1

  0
LINE
  5
31E
330
31C
100
AcDbEntity
  8
寸法線
  6
Continuous
 62
     1
100
AcDbLine
 10
1246.5
 20
547.0
 30
0.0
 11
1197.0
 21
547.0
 31
0.0
  0
LINE
  5
31F
330
31C
100
AcDbEntity
  8
寸法線
  6
Continuous
 62
     1
100
AcDbLine
 10
1246.5
 20
642.0
 30
0.0
 11
1197.0
 21
642.0
 31
0.0
  0
TEXT
  5
320
330
31C
100
AcDbEntity
  8
寸法線
  6
Continuous
 62
     1
100
AcDbText
 10
1197.0
 20
579.7706010521
 30
0.0
 40
27.999998
  1
95
 50
90.0
 41
0.63
  7
EXCADSTD
 72
     1
 11
1197.0
 21
594.5
 31
0.0
100
AcDbText
  0
LINE
  5
321
330
31C
100
AcDbEntity
  8
寸法線
  6
Continuous
 62
     1
100
AcDbLine
 10
1200.5
 20
547.0
 30
0.0
 11
1200.5
 21
642.0
 31
0.0
  0
LINE
  5
322
330
31C
100
AcDbEntity
  8
寸法線
  6
Continuous
 62
     1
100
AcDbLine
 10
1197.0
 20
568.0
 30
0.0
 11
1200.5
 21
547.0
 31
0.0
  0
LINE
  5
323
330
31C
100
AcDbEntity
  8
寸法線
  6
Continuous
 62
     1
100
AcDbLine
 10
1200.5
 20
547.0
 30
0.0
 11
1204.0
 21
568.0
 31
0.0
  0
LINE
  5
324
330
31C
100
AcDbEntity
  8
寸法線
  6
Continuous
 62
     1
100
AcDbLine
 10
1204.0
 20
621.0
 30
0.0
 11
1200.5
 21
642.0
 31
0.0
  0
LINE
  5
325
330
31C
100
AcDbEntity
  8
寸法線
  6
Continuous
 62
     1
100
AcDbLine
 10
1200.5
 20
642.0
 30
0.0
 11
1197.0
 21
621.0
 31
0.0
  0
ENDBLK
  5
516
330
31C
100
AcDbEntity
  8
0
100
AcDbBlockEnd
  0
BLOCK
  5
517
330
328
100
AcDbEntity
  8
0
100
AcDbBlockBegin
  2
*D24
 70
     1
 10
0.0
 20
0.0
 30
0.0
  3
*D24
  1

  0
LINE
  5
32A
330
328
100
AcDbEntity
  8
寸法線
  6
Continuous
 62
     1
100
AcDbLine
 10
1246.5
 20
762.0
 30
0.0
 11
1197.0
 21
762.0
 31
0.0
  0
TEXT
  5
32B
330
328
100
AcDbEntity
  8
寸法線
  6
Continuous
 62
     1
100
AcDbText
 10
1197.0
 20
678.4506016821
 30
0.0
 40
27.999998
  1
120
 50
90.0
 41
0.63
  7
EXCADSTD
 72
     1
 11
1197.0
 21
702.0
 31
0.0
100
AcDbText
  0
LINE
  5
32C
330
328
100
AcDbEntity
  8
寸法線
  6
Continuous
 62
     1
100
AcDbLine
 10
1200.5
 20
642.0
 30
0.0
 11
1200.5
 21
762.0
 31
0.0
  0
LINE
  5
32D
330
328
100
AcDbEntity
  8
寸法線
  6
Continuous
 62
     1
100
AcDbLine
 10
1197.0
 20
663.0
 30
0.0
 11
1200.5
 21
642.0
 31
0.0
  0
LINE
  5
32E
330
328
100
AcDbEntity
  8
寸法線
  6
Continuous
 62
     1
100
AcDbLine
 10
1200.5
 20
642.0
 30
0.0
 11
1204.0
 21
663.0
 31
0.0
  0
LINE
  5
32F
330
328
100
AcDbEntity
  8
寸法線
  6
Continuous
 62
     1
100
AcDbLine
 10
1204.0
 20
741.0
 30
0.0
 11
1200.5
 21
762.0
 31
0.0
  0
LINE
  5
330
330
328
100
AcDbEntity
  8
寸法線
  6
Continuous
 62
     1
100
AcDbLine
 10
1200.5
 20
762.0
 30
0.0
 11
1197.0
 21
741.0
 31
0.0
  0
ENDBLK
  5
518
330
328
100
AcDbEntity
  8
0
100
AcDbBlockEnd
  0
BLOCK
  5
519
330
333
100
AcDbEntity
  8
0
100
AcDbBlockBegin
  2
*D25
 70
     1
 10
0.0
 20
0.0
 30
0.0
  3
*D25
  1

  0
LINE
  5
335
330
333
100
AcDbEntity
  8
寸法線
  6
Continuous
 62
     1
100
AcDbLine
 10
1246.5
 20
857.0
 30
0.0
 11
1197.0
 21
857.0
 31
0.0
  0
TEXT
  5
336
330
333
100
AcDbEntity
  8
寸法線
  6
Continuous
 62
     1
100
AcDbText
 10
1197.0
 20
794.7706010521
 30
0.0
 40
27.999998
  1
95
 50
90.0
 41
0.63
  7
EXCADSTD
 72
     1
 11
1197.0
 21
809.5
 31
0.0
100
AcDbText
  0
LINE
  5
337
330
333
100
AcDbEntity
  8
寸法線
  6
Continuous
 62
     1
100
AcDbLine
 10
1200.5
 20
762.0
 30
0.0
 11
1200.5
 21
857.0
 31
0.0
  0
LINE
  5
338
330
333
100
AcDbEntity
  8
寸法線
  6
Continuous
 62
     1
100
AcDbLine
 10
1197.0
 20
783.0
 30
0.0
 11
1200.5
 21
762.0
 31
0.0
  0
LINE
  5
339
330
333
100
AcDbEntity
  8
寸法線
  6
Continuous
 62
     1
100
AcDbLine
 10
1200.5
 20
762.0
 30
0.0
 11
1204.0
 21
783.0
 31
0.0
  0
LINE
  5
33A
330
333
100
AcDbEntity
  8
寸法線
  6
Continuous
 62
     1
100
AcDbLine
 10
1204.0
 20
836.0
 30
0.0
 11
1200.5
 21
857.0
 31
0.0
  0
LINE
  5
33B
330
333
100
AcDbEntity
  8
寸法線
  6
Continuous
 62
     1
100
AcDbLine
 10
1200.5
 20
857.0
 30
0.0
 11
1197.0
 21
836.0
 31
0.0
  0
ENDBLK
  5
51A
330
333
100
AcDbEntity
  8
0
100
AcDbBlockEnd
  0
BLOCK
  5
51B
330
33E
100
AcDbEntity
  8
0
100
AcDbBlockBegin
  2
*D26
 70
     1
 10
0.0
 20
0.0
 30
0.0
  3
*D26
  1

  0
LINE
  5
340
330
33E
100
AcDbEntity
  8
寸法線
  6
Continuous
 62
     1
100
AcDbLine
 10
1249.0
 20
464.1
 30
0.0
 11
1314.0
 21
464.1
 31
0.0
  0
LINE
  5
341
330
33E
100
AcDbEntity
  8
寸法線
  6
Continuous
 62
     1
100
AcDbLine
 10
1263.0
 20
460.6
 30
0.0
 11
1284.0
 21
464.1
 31
0.0
  0
LINE
  5
342
330
33E
100
AcDbEntity
  8
寸法線
  6
Continuous
 62
     1
100
AcDbLine
 10
1284.0
 20
464.1
 30
0.0
 11
1263.0
 21
467.6
 31
0.0
  0
TEXT
  5
343
330
33E
100
AcDbEntity
  8
寸法線
  6
Continuous
 62
     1
100
AcDbText
 10
1235.9706010521
 20
467.6
 30
0.0
 40
27.999998
  1
30
 41
0.63
  7
EXCADSTD
 72
     1
 11
1250.7
 21
467.6
 31
0.0
100
AcDbText
  0
LINE
  5
344
330
33E
100
AcDbEntity
  8
寸法線
  6
Continuous
 62
     1
100
AcDbLine
 10
1284.0
 20
523.5
 30
0.0
 11
1284.0
 21
460.6
 31
0.0
  0
LINE
  5
345
330
33E
100
AcDbEntity
  8
寸法線
  6
Continuous
 62
     1
100
AcDbLine
 10
1314.0
 20
523.5
 30
0.0
 11
1314.0
 21
460.6
 31
0.0
  0
ENDBLK
  5
51C
330
33E
100
AcDbEntity
  8
0
100
AcDbBlockEnd
  0
BLOCK
  5
51D
330
348
100
AcDbEntity
  8
0
100
AcDbBlockBegin
  2
*D27
 70
     1
 10
0.0
 20
0.0
 30
0.0
  3
*D27
  1

  0
LINE
  5
34A
330
348
100
AcDbEntity
  8
寸法線
  6
Continuous
 62
     1
100
AcDbLine
 10
1314.0
 20
464.1
 30
0.0
 11
1374.0
 21
464.1
 31
0.0
  0
CIRCLE
  5
34B
330
348
100
AcDbEntity
  8
寸法線
  6
Continuous
 62
     1
100
AcDbCircle
 10
1314.0
 20
464.1
 30
0.0
 40
3.5
  0
CIRCLE
  5
34C
330
348
100
AcDbEntity
  8
寸法線
  6
Continuous
 62
     1
100
AcDbCircle
 10
1314.0
 20
464.1
 30
0.0
 40
1.75
  0
TEXT
  5
34D
330
348
100
AcDbEntity
  8
寸法線
  6
Continuous
 62
     1
100
AcDbText
 10
1329.2706010521
 20
467.6
 30
0.0
 40
27.999998
  1
60
 41
0.63
  7
EXCADSTD
 72
     1
 11
1344.0
 21
467.6
 31
0.0
100
AcDbText
  0
LINE
  5
34E
330
348
100
AcDbEntity
  8
寸法線
  6
Continuous
 62
     1
100
AcDbLine
 10
1374.0
 20
623.7
 30
0.0
 11
1374.0
 21
460.6
 31
0.0
  0
ENDBLK
  5
51E
330
348
100
AcDbEntity
  8
0
100
AcDbBlockEnd
  0
BLOCK
  5
51F
330
351
100
AcDbEntity
  8
0
100
AcDbBlockBegin
  2
*D28
 70
     1
 10
0.0
 20
0.0
 30
0.0
  3
*D28
  1

  0
LINE
  5
353
330
351
100
AcDbEntity
  8
寸法線
  6
Continuous
 62
     1
100
AcDbLine
 10
1374.0
 20
464.1
 30
0.0
 11
1434.0
 21
464.1
 31
0.0
  0
CIRCLE
  5
354
330
351
100
AcDbEntity
  8
寸法線
  6
Continuous
 62
     1
100
AcDbCircle
 10
1374.0
 20
464.1
 30
0.0
 40
3.5
  0
CIRCLE
  5
355
330
351
100
AcDbEntity
  8
寸法線
  6
Continuous
 62
     1
100
AcDbCircle
 10
1374.0
 20
464.1
 30
0.0
 40
1.75
  0
TEXT
  5
356
330
351
100
AcDbEntity
  8
寸法線
  6
Continuous
 62
     1
100
AcDbText
 10
1389.2706010521
 20
467.6
 30
0.0
 40
27.999998
  1
60
 41
0.63
  7
EXCADSTD
 72
     1
 11
1404.0
 21
467.6
 31
0.0
100
AcDbText
  0
LINE
  5
357
330
351
100
AcDbEntity
  8
寸法線
  6
Continuous
 62
     1
100
AcDbLine
 10
1434.0
 20
523.5
 30
0.0
 11
1434.0
 21
460.6
 31
0.0
  0
ENDBLK
  5
520
330
351
100
AcDbEntity
  8
0
100
AcDbBlockEnd
  0
BLOCK
  5
521
330
35A
100
AcDbEntity
  8
0
100
AcDbBlockBegin
  2
*D29
 70
     1
 10
0.0
 20
0.0
 30
0.0
  3
*D29
  1

  0
LINE
  5
35C
330
35A
100
AcDbEntity
  8
寸法線
  6
Continuous
 62
     1
100
AcDbLine
 10
1434.0
 20
464.1
 30
0.0
 11
1554.0
 21
464.1
 31
0.0
  0
LINE
  5
35D
330
35A
100
AcDbEntity
  8
寸法線
  6
Continuous
 62
     1
100
AcDbLine
 10
1455.0
 20
467.6
 30
0.0
 11
1434.0
 21
464.1
 31
0.0
  0
LINE
  5
35E
330
35A
100
AcDbEntity
  8
寸法線
  6
Continuous
 62
     1
100
AcDbLine
 10
1434.0
 20
464.1
 30
0.0
 11
1455.0
 21
460.6
 31
0.0
  0
LINE
  5
35F
330
35A
100
AcDbEntity
  8
寸法線
  6
Continuous
 62
     1
100
AcDbLine
 10
1533.0
 20
460.6
 30
0.0
 11
1554.0
 21
464.1
 31
0.0
  0
LINE
  5
360
330
35A
100
AcDbEntity
  8
寸法線
  6
Continuous
 62
     1
100
AcDbLine
 10
1554.0
 20
464.1
 30
0.0
 11
1533.0
 21
467.6
 31
0.0
  0
TEXT
  5
361
330
35A
100
AcDbEntity
  8
寸法線
  6
Continuous
 62
     1
100
AcDbText
 10
1470.4506016821
 20
467.6
 30
0.0
 40
27.999998
  1
120
 41
0.63
  7
EXCADSTD
 72
     1
 11
1494.0
 21
467.6
 31
0.0
100
AcDbText
  0
LINE
  5
362
330
35A
100
AcDbEntity
  8
寸法線
  6
Continuous
 62
     1
100
AcDbLine
 10
1554.0
 20
523.5
 30
0.0
 11
1554.0
 21
460.6
 31
0.0
  0
ENDBLK
  5
522
330
35A
100
AcDbEntity
  8
0
100
AcDbBlockEnd
  0
BLOCK
  5
523
330
365
100
AcDbEntity
  8
0
100
AcDbBlockBegin
  2
*D30
 70
     1
 10
0.0
 20
0.0
 30
0.0
  3
*D30
  1

  0
LINE
  5
367
330
365
100
AcDbEntity
  8
寸法線
  6
Continuous
 62
     1
100
AcDbLine
 10
1104.0
 20
1724.5
 30
0.0
 11
1104.0
 21
1858.5
 31
0.0
  0
LINE
  5
368
330
365
100
AcDbEntity
  8
寸法線
  6
Continuous
 62
     1
100
AcDbLine
 10
1810.6
 20
1724.5
 30
0.0
 11
1810.6
 21
1858.5
 31
0.0
  0
TEXT
  5
369
330
365
100
AcDbEntity
  8
寸法線
  6
Continuous
 62
     1
100
AcDbText
 10
1411.9506016821
 20
1858.5
 30
0.0
 40
27.999998
  1
706
 41
0.63
  7
EXCADSTD
 72
     1
 11
1435.5
 21
1858.5
 31
0.0
100
AcDbText
  0
LINE
  5
36A
330
365
100
AcDbEntity
  8
寸法線
  6
Continuous
 62
     1
100
AcDbLine
 10
1104.0
 20
1855.0
 30
0.0
 11
1810.6
 21
1855.0
 31
0.0
  0
LINE
  5
36B
330
365
100
AcDbEntity
  8
寸法線
  6
Continuous
 62
     1
100
AcDbLine
 10
1125.0
 20
1858.5
 30
0.0
 11
1104.0
 21
1855.0
 31
0.0
  0
LINE
  5
36C
330
365
100
AcDbEntity
  8
寸法線
  6
Continuous
 62
     1
100
AcDbLine
 10
1104.0
 20
1855.0
 30
0.0
 11
1125.0
 21
1851.5
 31
0.0
  0
LINE
  5
36D
330
365
100
AcDbEntity
  8
寸法線
  6
Continuous
 62
     1
100
AcDbLine
 10
1789.6
 20
1851.5
 30
0.0
 11
1810.6
 21
1855.0
 31
0.0
  0
LINE
  5
36E
330
365
100
AcDbEntity
  8
寸法線
  6
Continuous
 62
     1
100
AcDbLine
 10
1810.6
 20
1855.0
 30
0.0
 11
1789.6
 21
1858.5
 31
0.0
  0
ENDBLK
  5
524
330
365
100
AcDbEntity
  8
0
100
AcDbBlockEnd
  0
BLOCK
  5
525
330
371
100
AcDbEntity
  8
0
100
AcDbBlockBegin
  2
*D31
 70
     1
 10
0.0
 20
0.0
 30
0.0
  3
*D31
  1

  0
LINE
  5
373
330
371
100
AcDbEntity
  8
寸法線
  6
Continuous
 62
     1
100
AcDbLine
 10
1104.0
 20
1089.5
 30
0.0
 11
1104.0
 21
934.5
 31
0.0
  0
LINE
  5
374
330
371
100
AcDbEntity
  8
寸法線
  6
Continuous
 62
     1
100
AcDbLine
 10
1169.0
 20
937.3
 30
0.0
 11
1169.0
 21
941.5
 31
0.0
  0
TEXT
  5
375
330
371
100
AcDbEntity
  8
寸法線
  6
Continuous
 62
     1
100
AcDbText
 10
1121.3706010521
 20
941.5
 30
0.0
 40
27.999998
  1
65
 41
0.63
  7
EXCADSTD
 72
     1
 11
1136.1
 21
941.5
 31
0.0
100
AcDbText
  0
LINE
  5
376
330
371
100
AcDbEntity
  8
寸法線
  6
Continuous
 62
     1
100
AcDbLine
 10
1104.0
 20
938.0
 30
0.0
 11
1169.0
 21
938.0
 31
0.0
  0
LINE
  5
377
330
371
100
AcDbEntity
  8
寸法線
  6
Continuous
 62
     1
100
AcDbLine
 10
1125.0
 20
941.5
 30
0.0
 11
1104.0
 21
938.0
 31
0.0
  0
LINE
  5
378
330
371
100
AcDbEntity
  8
寸法線
  6
Continuous
 62
     1
100
AcDbLine
 10
1104.0
 20
938.0
 30
0.0
 11
1125.0
 21
934.5
 31
0.0
  0
LINE
  5
379
330
371
100
AcDbEntity
  8
寸法線
  6
Continuous
 62
     1
100
AcDbLine
 10
1148.0
 20
934.5
 30
0.0
 11
1169.0
 21
938.0
 31
0.0
  0
LINE
  5
37A
330
371
100
AcDbEntity
  8
寸法線
  6
Continuous
 62
     1
100
AcDbLine
 10
1169.0
 20
938.0
 30
0.0
 11
1148.0
 21
941.5
 31
0.0
  0
ENDBLK
  5
526
330
371
100
AcDbEntity
  8
0
100
AcDbBlockEnd
  0
BLOCK
  5
527
330
381
100
AcDbEntity
  8
0
100
AcDbBlockBegin
  2
*D32
 70
     1
 10
0.0
 20
0.0
 30
0.0
  3
*D32
  1

  0
LINE
  5
383
330
381
100
AcDbEntity
  8
寸法線
  6
Continuous
 62
     1
100
AcDbLine
 10
887.0
 20
1855.0
 30
0.0
 11
817.0
 21
1855.0
 31
0.0
  0
LINE
  5
384
330
381
100
AcDbEntity
  8
寸法線
  6
Continuous
 62
     1
100
AcDbLine
 10
866.0
 20
1851.5
 30
0.0
 11
887.0
 21
1855.0
 31
0.0
  0
LINE
  5
385
330
381
100
AcDbEntity
  8
寸法線
  6
Continuous
 62
     1
100
AcDbLine
 10
887.0
 20
1855.0
 30
0.0
 11
866.0
 21
1858.5
 31
0.0
  0
LINE
  5
386
330
381
100
AcDbEntity
  8
寸法線
  6
Continuous
 62
     1
100
AcDbLine
 10
838.0
 20
1858.5
 30
0.0
 11
817.0
 21
1855.0
 31
0.0
  0
LINE
  5
387
330
381
100
AcDbEntity
  8
寸法線
  6
Continuous
 62
     1
100
AcDbLine
 10
817.0
 20
1855.0
 30
0.0
 11
838.0
 21
1851.5
 31
0.0
  0
TEXT
  5
388
330
381
100
AcDbEntity
  8
寸法線
  6
Continuous
 62
     1
100
AcDbText
 10
822.6294020979
 20
1858.5
 30
0.0
 40
27.999998
  1
(70)
 41
0.63
  7
EXCADSTD
 72
     1
 11
852.0
 21
1858.5
 31
0.0
100
AcDbText
  0
LINE
  5
389
330
381
100
AcDbEntity
  8
寸法線
  6
Continuous
 62
     1
100
AcDbLine
 10
887.0
 20
1422.5
 30
0.0
 11
887.0
 21
1858.5
 31
0.0
  0
LINE
  5
38A
330
381
100
AcDbEntity
  8
寸法線
  6
Continuous
 62
     1
100
AcDbLine
 10
817.0
 20
1734.022718
 30
0.0
 11
817.0
 21
1858.5
 31
0.0
  0
ENDBLK
  5
528
330
381
100
AcDbEntity
  8
0
100
AcDbBlockEnd
  0
BLOCK
  5
529
330
38D
100
AcDbEntity
  8
0
100
AcDbBlockBegin
  2
*D33
 70
     1
 10
0.0
 20
0.0
 30
0.0
  3
*D33
  1

  0
LINE
  5
38F
330
38D
100
AcDbEntity
  8
寸法線
  6
Continuous
 62
     1
100
AcDbLine
 10
1169.0
 20
1035.5
 30
0.0
 11
1169.0
 21
933.8
 31
0.0
  0
LINE
  5
390
330
38D
100
AcDbEntity
  8
寸法線
  6
Continuous
 62
     1
100
AcDbLine
 10
1284.0
 20
937.0
 30
0.0
 11
1284.0
 21
940.8
 31
0.0
  0
LINE
  5
391
330
38D
100
AcDbEntity
  8
寸法線
  6
Continuous
 62
     1
100
AcDbLine
 10
1169.0
 20
937.3
 30
0.0
 11
1284.0
 21
937.3
 31
0.0
  0
LINE
  5
392
330
38D
100
AcDbEntity
  8
寸法線
  6
Continuous
 62
     1
100
AcDbLine
 10
1190.0
 20
940.8
 30
0.0
 11
1169.0
 21
937.3
 31
0.0
  0
LINE
  5
393
330
38D
100
AcDbEntity
  8
寸法線
  6
Continuous
 62
     1
100
AcDbLine
 10
1169.0
 20
937.3
 30
0.0
 11
1190.0
 21
933.8
 31
0.0
  0
LINE
  5
394
330
38D
100
AcDbEntity
  8
寸法線
  6
Continuous
 62
     1
100
AcDbLine
 10
1263.0
 20
933.8
 30
0.0
 11
1284.0
 21
937.3
 31
0.0
  0
LINE
  5
395
330
38D
100
AcDbEntity
  8
寸法線
  6
Continuous
 62
     1
100
AcDbLine
 10
1284.0
 20
937.3
 30
0.0
 11
1263.0
 21
940.8
 31
0.0
  0
TEXT
  5
396
330
38D
100
AcDbEntity
  8
寸法線
  6
Continuous
 62
     1
100
AcDbText
 10
1188.3094027279
 20
940.8
 30
0.0
 40
27.999998
  1
(115)
 41
0.63
  7
EXCADSTD
 72
     1
 11
1226.5
 21
940.8
 31
0.0
100
AcDbText
  0
ENDBLK
  5
52A
330
38D
100
AcDbEntity
  8
0
100
AcDbBlockEnd
  0
BLOCK
  5
52B
330
399
100
AcDbEntity
  8
0
100
AcDbBlockBegin
  2
*D34
 70
     1
 10
0.0
 20
0.0
 30
0.0
  3
*D34
  1

  0
LINE
  5
39B
330
399
100
AcDbEntity
  8
寸法線
  6
Continuous
 62
     1
100
AcDbLine
 10
1590.0
 20
1007.5
 30
0.0
 11
1590.0
 21
933.5
 31
0.0
  0
LINE
  5
39C
330
399
100
AcDbEntity
  8
寸法線
  6
Continuous
 62
     1
100
AcDbLine
 10
1810.6
 20
1092.5
 30
0.0
 11
1810.6
 21
933.5
 31
0.0
  0
LINE
  5
39D
330
399
100
AcDbEntity
  8
寸法線
  6
Continuous
 62
     1
100
AcDbLine
 10
1590.0
 20
937.0
 30
0.0
 11
1810.6
 21
937.0
 31
0.0
  0
LINE
  5
39E
330
399
100
AcDbEntity
  8
寸法線
  6
Continuous
 62
     1
100
AcDbLine
 10
1611.0
 20
940.5
 30
0.0
 11
1590.0
 21
937.0
 31
0.0
  0
LINE
  5
39F
330
399
100
AcDbEntity
  8
寸法線
  6
Continuous
 62
     1
100
AcDbLine
 10
1590.0
 20
937.0
 30
0.0
 11
1611.0
 21
933.5
 31
0.0
  0
LINE
  5
3A0
330
399
100
AcDbEntity
  8
寸法線
  6
Continuous
 62
     1
100
AcDbLine
 10
1789.6
 20
933.5
 30
0.0
 11
1810.6
 21
937.0
 31
0.0
  0
LINE
  5
3A1
330
399
100
AcDbEntity
  8
寸法線
  6
Continuous
 62
     1
100
AcDbLine
 10
1810.6
 20
937.0
 30
0.0
 11
1789.6
 21
940.5
 31
0.0
  0
TEXT
  5
3A2
330
399
100
AcDbEntity
  8
寸法線
  6
Continuous
 62
     1
100
AcDbText
 10
1662.1094027279
 20
940.5
 30
0.0
 40
27.999998
  1
(220)
 41
0.63
  7
EXCADSTD
 72
     1
 11
1700.3
 21
940.5
 31
0.0
100
AcDbText
  0
ENDBLK
  5
52C
330
399
100
AcDbEntity
  8
0
100
AcDbBlockEnd
  0
BLOCK
  5
52D
330
3A5
100
AcDbEntity
  8
0
100
AcDbBlockBegin
  2
*D35
 70
     1
 10
0.0
 20
0.0
 30
0.0
  3
*D35
  1

  0
LINE
  5
3A7
330
3A5
100
AcDbEntity
  8
寸法線
  6
Continuous
 62
     1
100
AcDbLine
 10
1284.0
 20
523.5
 30
0.0
 11
1284.0
 21
394.8
 31
0.0
  0
LINE
  5
3A8
330
3A5
100
AcDbEntity
  8
寸法線
  6
Continuous
 62
     1
100
AcDbLine
 10
1590.0
 20
523.5
 30
0.0
 11
1590.0
 21
394.8
 31
0.0
  0
LINE
  5
3A9
330
3A5
100
AcDbEntity
  8
寸法線
  6
Continuous
 62
     1
100
AcDbLine
 10
1284.0
 20
398.3
 30
0.0
 11
1590.0
 21
398.3
 31
0.0
  0
LINE
  5
3AA
330
3A5
100
AcDbEntity
  8
寸法線
  6
Continuous
 62
     1
100
AcDbLine
 10
1305.0
 20
401.8
 30
0.0
 11
1284.0
 21
398.3
 31
0.0
  0
LINE
  5
3AB
330
3A5
100
AcDbEntity
  8
寸法線
  6
Continuous
 62
     1
100
AcDbLine
 10
1284.0
 20
398.3
 30
0.0
 11
1305.0
 21
394.8
 31
0.0
  0
LINE
  5
3AC
330
3A5
100
AcDbEntity
  8
寸法線
  6
Continuous
 62
     1
100
AcDbLine
 10
1569.0
 20
394.8
 30
0.0
 11
1590.0
 21
398.3
 31
0.0
  0
LINE
  5
3AD
330
3A5
100
AcDbEntity
  8
寸法線
  6
Continuous
 62
     1
100
AcDbLine
 10
1590.0
 20
398.3
 30
0.0
 11
1569.0
 21
401.8
 31
0.0
  0
TEXT
  5
3AE
330
3A5
100
AcDbEntity
  8
寸法線
  6
Continuous
 62
     1
100
AcDbText
 10
1407.9506016821
 20
401.8
 30
0.0
 40
27.999998
  1
306
 41
0.63
  7
EXCADSTD
 72
     1
 11
1431.5
 21
401.8
 31
0.0
100
AcDbText
  0
ENDBLK
  5
52E
330
3A5
100
AcDbEntity
  8
0
100
AcDbBlockEnd
  0
BLOCK
  5
52F
330
3B1
100
AcDbEntity
  8
0
100
AcDbBlockBegin
  2
*D36
 70
     1
 10
0.0
 20
0.0
 30
0.0
  3
*D36
  1

  0
LINE
  5
3B3
330
3B1
100
AcDbEntity
  8
寸法線
  6
Continuous
 62
     1
100
AcDbLine
 10
1587.5
 20
527.0
 30
0.0
 11
1740.2
 21
527.0
 31
0.0
  0
LINE
  5
3B4
330
3B1
100
AcDbEntity
  8
寸法線
  6
Continuous
 62
     1
100
AcDbLine
 10
1593.5
 20
877.0
 30
0.0
 11
1740.2
 21
877.0
 31
0.0
  0
LINE
  5
3B5
330
3B1
100
AcDbEntity
  8
寸法線
  6
Continuous
 62
     1
100
AcDbLine
 10
1736.7
 20
527.0
 30
0.0
 11
1736.7
 21
877.0
 31
0.0
  0
LINE
  5
3B6
330
3B1
100
AcDbEntity
  8
寸法線
  6
Continuous
 62
     1
100
AcDbLine
 10
1733.2
 20
548.0
 30
0.0
 11
1736.7
 21
527.0
 31
0.0
  0
LINE
  5
3B7
330
3B1
100
AcDbEntity
  8
寸法線
  6
Continuous
 62
     1
100
AcDbLine
 10
1736.7
 20
527.0
 30
0.0
 11
1740.2
 21
548.0
 31
0.0
  0
LINE
  5
3B8
330
3B1
100
AcDbEntity
  8
寸法線
  6
Continuous
 62
     1
100
AcDbLine
 10
1740.2
 20
856.0
 30
0.0
 11
1736.7
 21
877.0
 31
0.0
  0
LINE
  5
3B9
330
3B1
100
AcDbEntity
  8
寸法線
  6
Continuous
 62
     1
100
AcDbLine
 10
1736.7
 20
877.0
 30
0.0
 11
1733.2
 21
856.0
 31
0.0
  0
TEXT
  5
3BA
330
3B1
100
AcDbEntity
  8
寸法線
  6
Continuous
 62
     1
100
AcDbText
 10
1733.2
 20
681.3506016821
 30
0.0
 40
27.999998
  1
350
 50
90.0
 41
0.63
  7
EXCADSTD
 72
     1
 11
1733.2
 21
704.9
 31
0.0
100
AcDbText
  0
ENDBLK
  5
530
330
3B1
100
AcDbEntity
  8
0
100
AcDbBlockEnd
  0
BLOCK
  5
531
330
3C1
100
AcDbEntity
  8
0
100
AcDbBlockBegin
  2
*D37
 70
     1
 10
0.0
 20
0.0
 30
0.0
  3
*D37
  1

  0
LINE
  5
3C3
330
3C1
100
AcDbEntity
  8
寸法線
  6
Continuous
 62
     1
100
AcDbLine
 10
512.0
 20
1007.5
 30
0.0
 11
512.0
 21
880.5
 31
0.0
  0
LINE
  5
3C4
330
3C1
100
AcDbEntity
  8
寸法線
  6
Continuous
 62
     1
100
AcDbLine
 10
862.0
 20
1007.5
 30
0.0
 11
862.0
 21
880.5
 31
0.0
  0
LINE
  5
3C5
330
3C1
100
AcDbEntity
  8
寸法線
  6
Continuous
 62
     1
100
AcDbLine
 10
512.0
 20
884.0
 30
0.0
 11
862.0
 21
884.0
 31
0.0
  0
LINE
  5
3C6
330
3C1
100
AcDbEntity
  8
寸法線
  6
Continuous
 62
     1
100
AcDbLine
 10
533.0
 20
887.5
 30
0.0
 11
512.0
 21
884.0
 31
0.0
  0
LINE
  5
3C7
330
3C1
100
AcDbEntity
  8
寸法線
  6
Continuous
 62
     1
100
AcDbLine
 10
512.0
 20
884.0
 30
0.0
 11
533.0
 21
880.5
 31
0.0
  0
LINE
  5
3C8
330
3C1
100
AcDbEntity
  8
寸法線
  6
Continuous
 62
     1
100
AcDbLine
 10
841.0
 20
880.5
 30
0.0
 11
862.0
 21
884.0
 31
0.0
  0
LINE
  5
3C9
330
3C1
100
AcDbEntity
  8
寸法線
  6
Continuous
 62
     1
100
AcDbLine
 10
862.0
 20
884.0
 30
0.0
 11
841.0
 21
887.5
 31
0.0
  0
TEXT
  5
3CA
330
3C1
100
AcDbEntity
  8
寸法線
  6
Continuous
 62
     1
100
AcDbText
 10
663.4506016821
 20
887.5
 30
0.0
 40
27.999998
  1
350
 41
0.63
  7
EXCADSTD
 72
     1
 11
687.0
 21
887.5
 31
0.0
100
AcDbText
  0
ENDBLK
  5
532
330
3C1
100
AcDbEntity
  8
0
100
AcDbBlockEnd
  0
ENDSEC
  0
SECTION
  2
ENTITIES
  0
LINE
  5
8D
330
1F
100
AcDbEntity
  8
作図線（太線）
  6
Continuous
 62
     7
100
AcDbLine
 10
1584.0
 20
1295.8
 30
0.0
 11
1590.0
 21
1295.8
 31
0.0
  0
LINE
  5
8E
330
1F
100
AcDbEntity
  8
作図線（太線）
  6
Continuous
 62
     7
100
AcDbLine
 10
1584.0
 20
1463.0
 30
0.0
 11
1810.6
 21
1463.0
 31
0.0
  0
LINE
  5
8F
330
1F
100
AcDbEntity
  8
作図線（太線）
  6
Continuous
 62
     7
100
AcDbLine
 10
1810.6
 20
1463.0
 30
0.0
 11
1810.6
 21
1096.0
 31
0.0
  0
LINE
  5
90
330
1F
100
AcDbEntity
  8
作図線（太線）
  6
Continuous
 62
     7
100
AcDbLine
 10
770.4
 20
1357.8
 30
0.0
 11
770.4
 21
1418.2
 31
0.0
  0
LINE
  5
91
330
1F
100
AcDbEntity
  8
作図線（太線）
  6
Continuous
 62
     7
100
AcDbLine
 10
781.75
 20
1418.2
 30
0.0
 11
781.75
 21
1440.2
 31
0.0
  0
LINE
  5
539
330
1F
100
AcDbEntity
  8
作図線（太線）
  6
Continuous
 62
     7
100
AcDbLine
 10
781.75
 20
1440.2
 30
0.0
 11
792.25
 21
1440.2
 31
0.0
  0
LINE
  5
53A
330
1F
100
AcDbEntity
  8
作図線（太線）
  6
Continuous
 62
     7
100
AcDbLine
 10
792.25
 20
1418.2
 30
0.0
 11
792.25
 21
1440.2
 31
0.0
  0
LINE
  5
94
330
1F
100
AcDbEntity
  8
作図線（太線）
  6
Continuous
 62
     7
100
AcDbLine
 10
795.4
 20
1357.8
 30
0.0
 11
795.4
 21
1418.2
 31
0.0
  0
LINE
  5
95
330
1F
100
AcDbEntity
  8
作図線（太線）
  6
Continuous
 62
     7
100
AcDbLine
 10
770.4
 20
1418.2
 30
0.0
 11
795.4
 21
1418.2
 31
0.0
  0
LINE
  5
96
330
1F
100
AcDbEntity
  8
作図線（太線）
  6
Continuous
 62
     7
100
AcDbLine
 10
783.0
 20
1357.8
 30
0.0
 11
783.0
 21
1341.5
 31
0.0
  0
LINE
  5
53B
330
1F
100
AcDbEntity
  8
作図線（太線）
  6
Continuous
 62
     7
100
AcDbLine
 10
791.0
 20
1357.8
 30
0.0
 11
791.0
 21
1341.5
 31
0.0
  0
LINE
  5
53C
330
1F
100
AcDbEntity
  8
作図線（太線）
  6
Continuous
 62
     7
100
AcDbLine
 10
783.0
 20
1341.5
 30
0.0
 11
791.0
 21
1341.5
 31
0.0
  0
LINE
  5
53D
330
1F
100
AcDbEntity
  8
作図線（太線）
  6
Continuous
 62
     7
100
AcDbLine
 10
785.0
 20
1341.5
 30
0.0
 11
785.0
 21
1326.3
 31
0.0
  0
LINE
  5
53E
330
1F
100
AcDbEntity
  8
作図線（太線）
  6
Continuous
 62
     7
100
AcDbLine
 10
789.0
 20
1341.5
 30
0.0
 11
789.0
 21
1326.3
 31
0.0
  0
ARC
  5
53F
330
1F
100
AcDbEntity
  8
作図線（太線）
  6
Continuous
 62
     7
100
AcDbCircle
 10
787.0
 20
1321.8
 30
0.0
 40
1.5
100
AcDbArc
 50
180.0
 51
0.0
  0
LINE
  5
540
330
1F
100
AcDbEntity
  8
作図線（太線）
  6
Continuous
 62
     7
100
AcDbLine
 10
789.51
 20
1321.8
 30
0.0
 11
784.49
 21
1321.8
 31
0.0
  0
LINE
  5
541
330
1F
100
AcDbEntity
  8
作図線（太線）
  6
Continuous
 62
     7
100
AcDbLine
 10
789.51
 20
1326.3
 30
0.0
 11
784.49
 21
1326.3
 31
0.0
  0
LINE
  5
542
330
1F
100
AcDbEntity
  8
作図線（太線）
  6
Continuous
 62
     7
100
AcDbLine
 10
784.49
 20
1326.3
 30
0.0
 11
784.49
 21
1321.8
 31
0.0
  0
LINE
  5
543
330
1F
100
AcDbEntity
  8
作図線（太線）
  6
Continuous
 62
     7
100
AcDbLine
 10
789.51
 20
1326.3
 30
0.0
 11
789.51
 21
1321.8
 31
0.0
  0
LINE
  5
544
330
1F
100
AcDbEntity
  8
作図線（太線）
  6
Continuous
 62
     7
100
AcDbLine
 10
770.4
 20
1357.8
 30
0.0
 11
795.4
 21
1357.8
 31
0.0
  0
LINE
  5
545
330
1F
100
AcDbEntity
  8
作図線（太線）
  6
Continuous
 62
     7
100
AcDbLine
 10
780.0
 20
1341.5
 30
0.0
 11
785.0
 21
1341.5
 31
0.0
  0
LINE
  5
546
330
1F
100
AcDbEntity
  8
作図線（太線）
  6
Continuous
 62
     7
100
AcDbLine
 10
791.0
 20
1357.5
 30
0.0
 11
794.0
 21
1357.5
 31
0.0
  0
LINE
  5
547
330
1F
100
AcDbEntity
  8
作図線（太線）
  6
Continuous
 62
     7
100
AcDbLine
 10
787.0
 20
1349.3
 30
0.0
 11
787.0
 21
1349.5
 31
0.0
  0
LINE
  5
548
330
1F
100
AcDbEntity
  8
作図線（太線）
  6
Continuous
 62
     7
100
AcDbLine
 10
783.0
 20
1357.5
 30
0.0
 11
772.0
 21
1357.5
 31
0.0
  0
LINE
  5
549
330
1F
100
AcDbEntity
  8
作図線（太線）
  6
Continuous
 62
     7
100
AcDbLine
 10
791.0
 20
1341.5
 30
0.0
 11
809.0
 21
1341.5
 31
0.0
  0
LINE
  5
54A
330
1F
100
AcDbEntity
  8
作図線（太線）
  6
Continuous
 62
     7
100
AcDbLine
 10
795.0
 20
1293.0
 30
0.0
 11
795.0
 21
1296.0
 31
0.0
  0
ARC
  5
54B
330
1F
100
AcDbEntity
  8
作図線（太線）
  6
Continuous
 62
     7
100
AcDbCircle
 10
798.0
 20
1306.0
 30
0.0
 40
10.0
100
AcDbArc
 50
270.0
 51
275.73917
  0
ARC
  5
54C
330
1F
100
AcDbEntity
  8
作図線（太線）
  6
Continuous
 62
     7
100
AcDbCircle
 10
798.0
 20
1306.0
 30
0.0
 40
10.0
100
AcDbArc
 50
314.427004
 51
0.0
  0
LINE
  5
54D
330
1F
100
AcDbEntity
  8
作図線（太線）
  6
Continuous
 62
     7
100
AcDbLine
 10
808.0
 20
1306.0
 30
0.0
 11
808.0
 21
1327.5
 31
0.0
  0
LINE
  5
54E
330
1F
100
AcDbEntity
  8
作図線（太線）
  6
Continuous
 62
     7
100
AcDbLine
 10
809.0
 20
1357.5
 30
0.0
 11
809.0
 21
1341.5
 31
0.0
  0
LINE
  5
54F
330
1F
100
AcDbEntity
  8
作図線（太線）
  6
Continuous
 62
     7
100
AcDbLine
 10
794.0
 20
1357.5
 30
0.0
 11
809.0
 21
1357.5
 31
0.0
  0
LINE
  5
550
330
1F
100
AcDbEntity
  8
作図線（太線）
  6
Continuous
 62
     7
100
AcDbLine
 10
772.0
 20
1357.5
 30
0.0
 11
772.0
 21
1341.5
 31
0.0
  0
CIRCLE
  5
551
330
1F
100
AcDbEntity
  8
作図線（太線）
  6
Continuous
 62
     7
100
AcDbCircle
 10
778.0
 20
1349.5
 30
0.0
 40
2.0
  0
LINE
  5
552
330
1F
100
AcDbEntity
  8
作図線（太線）
  6
Continuous
 62
     7
100
AcDbLine
 10
772.0
 20
1341.5
 30
0.0
 11
783.0
 21
1341.5
 31
0.0
  0
LINE
  5
553
330
1F
100
AcDbEntity
  8
作図線（太線）
  6
Continuous
 62
     7
100
AcDbLine
 10
794.0
 20
1357.5
 30
0.0
 11
809.0
 21
1357.5
 31
0.0
  0
LINE
  5
554
330
1F
100
AcDbEntity
  8
作図線（太線）
  6
Continuous
 62
     7
100
AcDbLine
 10
796.0
 20
1313.3
 30
0.0
 11
796.0
 21
1320.3
 31
0.0
  0
LINE
  5
555
330
1F
100
AcDbEntity
  8
作図線（太線）
  6
Continuous
 62
     7
100
AcDbLine
 10
808.0
 20
1313.3
 30
0.0
 11
808.0
 21
1320.3
 31
0.0
  0
LINE
  5
556
330
1F
100
AcDbEntity
  8
作図線（太線）
  6
Continuous
 62
     7
100
AcDbLine
 10
796.0
 20
1313.3
 30
0.0
 11
808.0
 21
1313.3
 31
0.0
  0
LINE
  5
557
330
1F
100
AcDbEntity
  8
作図線（太線）
  6
Continuous
 62
     7
100
AcDbLine
 10
796.0
 20
1320.3
 30
0.0
 11
808.0
 21
1320.3
 31
0.0
  0
LINE
  5
558
330
1F
100
AcDbEntity
  8
作図線（太線）
  6
Continuous
 62
     7
100
AcDbLine
 10
810.0
 20
1293.0
 30
0.0
 11
810.0
 21
1253.0
 31
0.0
  0
LINE
  5
559
330
1F
100
AcDbEntity
  8
作図線（太線）
  6
Continuous
 62
     7
100
AcDbLine
 10
799.0
 20
1213.0
 30
0.0
 11
805.0
 21
1213.0
 31
0.0
  0
LINE
  5
55A
330
1F
100
AcDbEntity
  8
作図線（太線）
  6
Continuous
 62
     7
100
AcDbLine
 10
799.0
 20
1313.3
 30
0.0
 11
799.0
 21
1293.0
 31
0.0
  0
LINE
  5
55B
330
1F
100
AcDbEntity
  8
作図線（太線）
  6
Continuous
 62
     7
100
AcDbLine
 10
805.0
 20
1313.3
 30
0.0
 11
805.0
 21
1293.0
 31
0.0
  0
LINE
  5
55C
330
1F
100
AcDbEntity
  8
作図線（太線）
  6
Continuous
 62
     7
100
AcDbLine
 10
799.0
 20
1253.0
 30
0.0
 11
799.0
 21
1213.0
 31
0.0
  0
LINE
  5
55D
330
1F
100
AcDbEntity
  8
作図線（太線）
  6
Continuous
 62
     7
100
AcDbLine
 10
805.0
 20
1253.0
 30
0.0
 11
805.0
 21
1213.0
 31
0.0
  0
CIRCLE
  5
55E
330
1F
100
AcDbEntity
  8
作図線（太線）
  6
Continuous
 62
     7
100
AcDbCircle
 10
802.0
 20
1273.0
 30
0.0
 40
2.5
  0
LINE
  5
BB
330
1F
100
AcDbEntity
  8
作図線（太線）
  6
Continuous
 62
     7
100
AcDbLine
 10
807.0
 20
1357.5
 30
0.0
 11
807.0
 21
1358.25
 31
0.0
  0
LINE
  5
BC
330
1F
100
AcDbEntity
  8
作図線（太線）
  6
Continuous
 62
     7
100
AcDbLine
 10
797.0
 20
1357.5
 30
0.0
 11
797.0
 21
1358.25
 31
0.0
  0
LINE
  5
BD
330
1F
100
AcDbEntity
  8
作図線（太線）
  6
Continuous
 62
     7
100
AcDbLine
 10
797.0
 20
1358.25
 30
0.0
 11
807.0
 21
1358.25
 31
0.0
  0
ARC
  5
BE
330
1F
100
AcDbEntity
  8
作図線（太線）
  6
Continuous
 62
     7
100
AcDbCircle
 10
802.0
 20
1352.897917
 30
0.0
 40
8.452083
100
AcDbArc
 50
45.729016
 51
134.270984
  0
LINE
  5
BF
330
1F
100
AcDbEntity
  8
作図線（太線）
  6
Continuous
 62
     7
100
AcDbLine
 10
796.1
 20
1358.95
 30
0.0
 11
807.9
 21
1358.95
 31
0.0
  0
LINE
  5
C0
330
1F
100
AcDbEntity
  8
作図線（太線）
  6
Continuous
 62
     7
100
AcDbLine
 10
807.9
 20
1358.25
 30
0.0
 11
807.9
 21
1358.95
 31
0.0
  0
LINE
  5
C1
330
1F
100
AcDbEntity
  8
作図線（太線）
  6
Continuous
 62
     7
100
AcDbLine
 10
796.1
 20
1358.25
 30
0.0
 11
796.1
 21
1358.95
 31
0.0
  0
LINE
  5
C2
330
1F
100
AcDbEntity
  8
作図線（太線）
  6
Continuous
 62
     7
100
AcDbLine
 10
797.0
 20
1358.25
 30
0.0
 11
796.1
 21
1358.25
 31
0.0
  0
LINE
  5
C3
330
1F
100
AcDbEntity
  8
作図線（太線）
  6
Continuous
 62
     7
100
AcDbLine
 10
807.0
 20
1358.25
 30
0.0
 11
807.9
 21
1358.25
 31
0.0
  0
LINE
  5
C4
330
1F
100
AcDbEntity
  8
作図線（太線）
  6
Continuous
 62
     7
100
AcDbLine
 10
809.0
 20
1341.5
 30
0.0
 11
810.0
 21
1341.5
 31
0.0
  0
LINE
  5
C5
330
1F
100
AcDbEntity
  8
作図線（太線）
  6
Continuous
 62
     7
100
AcDbLine
 10
810.0
 20
1341.5
 30
0.0
 11
810.0
 21
1324.5
 31
0.0
  0
ARC
  5
C6
330
1F
100
AcDbEntity
  8
作図線（太線）
  6
Continuous
 62
     7
100
AcDbCircle
 10
811.647917
 20
1334.5
 30
0.0
 40
8.452083
100
AcDbArc
 50
315.729016
 51
44.270984
  0
LINE
  5
C7
330
1F
100
AcDbEntity
  8
作図線（太線）
  6
Continuous
 62
     7
100
AcDbLine
 10
817.7
 20
1340.4
 30
0.0
 11
817.7
 21
1328.6
 31
0.0
  0
LINE
  5
C8
330
1F
100
AcDbEntity
  8
作図線（太線）
  6
Continuous
 62
     7
100
AcDbLine
 10
817.0
 20
1328.6
 30
0.0
 11
817.7
 21
1328.6
 31
0.0
  0
LINE
  5
C9
330
1F
100
AcDbEntity
  8
作図線（太線）
  6
Continuous
 62
     7
100
AcDbLine
 10
817.0
 20
1340.4
 30
0.0
 11
817.7
 21
1340.4
 31
0.0
  0
LINE
  5
CA
330
1F
100
AcDbEntity
  8
作図線（太線）
  6
Continuous
 62
     7
100
AcDbLine
 10
797.0
 20
1327.5
 30
0.0
 11
810.0
 21
1327.5
 31
0.0
  0
LINE
  5
CB
330
1F
100
AcDbEntity
  8
作図線（太線）
  6
Continuous
 62
     7
100
AcDbLine
 10
797.0
 20
1341.5
 30
0.0
 11
797.0
 21
1327.5
 31
0.0
  0
ARC
  5
CC
330
1F
100
AcDbEntity
  8
作図線（太線）
  6
Continuous
 62
     7
100
AcDbCircle
 10
800.0
 20
1324.5
 30
0.0
 40
10.0
100
AcDbArc
 50
323.130102
 51
0.0
  0
LINE
  5
CD
330
1F
100
AcDbEntity
  8
作図線（太線）
  6
Continuous
 62
     7
100
AcDbLine
 10
797.4
 20
1323.5
 30
0.0
 11
797.4
 21
1327.5
 31
0.0
  0
LINE
  5
CE
330
1F
100
AcDbEntity
  8
作図線（太線）
  6
Continuous
 62
     7
100
AcDbLine
 10
806.6
 20
1323.5
 30
0.0
 11
806.6
 21
1327.5
 31
0.0
  0
LINE
  5
CF
330
1F
100
AcDbEntity
  8
作図線（太線）
  6
Continuous
 62
     7
100
AcDbLine
 10
797.4
 20
1323.5
 30
0.0
 11
806.6
 21
1323.5
 31
0.0
  0
LINE
  5
D0
330
1F
100
AcDbEntity
  8
作図線（太線）
  6
Continuous
 62
     7
100
AcDbLine
 10
809.949874
 20
1323.5
 30
0.0
 11
810.0
 21
1323.5
 31
0.0
  0
CIRCLE
  5
D1
330
1F
100
AcDbEntity
  8
作図線（太線）
  6
Continuous
 62
     3
100
AcDbCircle
 10
802.0
 20
1273.0
 30
0.0
 40
2.0
  0
LINE
  5
D2
330
1F
100
AcDbEntity
  8
作図線（太線）
  6
Continuous
 62
     7
100
AcDbLine
 10
737.0
 20
1293.0
 30
0.0
 11
810.0
 21
1293.0
 31
0.0
  0
LINE
  5
D3
330
1F
100
AcDbEntity
  8
作図線（太線）
  6
Continuous
 62
     7
100
AcDbLine
 10
737.0
 20
1253.0
 30
0.0
 11
737.0
 21
1293.0
 31
0.0
  0
CIRCLE
  5
D4
330
1F
100
AcDbEntity
  8
作図線（太線）
  6
Continuous
 62
     7
100
AcDbCircle
 10
744.0
 20
1286.0
 30
0.0
 40
4.25
  0
CIRCLE
  5
D5
330
1F
100
AcDbEntity
  8
作図線（太線）
  6
Continuous
 62
     7
100
AcDbCircle
 10
744.0
 20
1260.0
 30
0.0
 40
4.25
  0
LINE
  5
D6
330
1F
100
AcDbEntity
  8
作図線（太線）
  6
EXLTYPE2
 62
     7
100
AcDbLine
 10
808.0
 20
1337.0
 30
0.0
 11
810.0
 21
1337.0
 31
0.0
  0
LINE
  5
D7
330
1F
100
AcDbEntity
  8
作図線（太線）
  6
EXLTYPE2
 62
     7
100
AcDbLine
 10
808.0
 20
1332.0
 30
0.0
 11
810.0
 21
1332.0
 31
0.0
  0
ARC
  5
D8
330
1F
100
AcDbEntity
  8
作図線（太線）
  6
Continuous
 62
     7
100
AcDbCircle
 10
777.0
 20
1276.0
 30
0.0
 40
7.5
100
AcDbArc
 50
0.0
 51
180.0
  0
LINE
  5
D9
330
1F
100
AcDbEntity
  8
作図線（太線）
  6
Continuous
 62
     7
100
AcDbLine
 10
769.5
 20
1276.0
 30
0.0
 11
769.5
 21
1253.0
 31
0.0
  0
LINE
  5
DA
330
1F
100
AcDbEntity
  8
作図線（太線）
  6
Continuous
 62
     7
100
AcDbLine
 10
784.5
 20
1276.0
 30
0.0
 11
784.5
 21
1253.0
 31
0.0
  0
LINE
  5
DB
330
1F
100
AcDbEntity
  8
作図線（太線）
  6
Continuous
 62
     7
100
AcDbLine
 10
737.0
 20
1253.0
 30
0.0
 11
769.5
 21
1253.0
 31
0.0
  0
LINE
  5
DC
330
1F
100
AcDbEntity
  8
作図線（太線）
  6
Continuous
 62
     7
100
AcDbLine
 10
784.5
 20
1253.0
 30
0.0
 11
810.0
 21
1253.0
 31
0.0
  0
LINE
  5
DD
330
1F
100
AcDbEntity
  8
作図線（太線）
  6
Continuous
 62
     7
100
AcDbLine
 10
1460.552945
 20
1453.0
 30
0.0
 11
1557.447055
 21
1453.0
 31
0.0
  0
ARC
  5
DE
330
1F
100
AcDbEntity
  8
作図線（太線）
  6
Continuous
 62
     7
100
AcDbCircle
 10
1460.552945
 20
1436.447055
 30
0.0
 40
16.552945
100
AcDbArc
 50
90.0
 51
180.0
  0
LINE
  5
DF
330
1F
100
AcDbEntity
  8
作図線（太線）
  6
Continuous
 62
     7
100
AcDbLine
 10
1444.0
 20
1436.447055
 30
0.0
 11
1444.0
 21
1289.552945
 31
0.0
  0
ARC
  5
E0
330
1F
100
AcDbEntity
  8
作図線（太線）
  6
Continuous
 62
     7
100
AcDbCircle
 10
1460.552945
 20
1289.552945
 30
0.0
 40
16.552945
100
AcDbArc
 50
180.0
 51
270.0
  0
LINE
  5
E1
330
1F
100
AcDbEntity
  8
作図線（太線）
  6
Continuous
 62
     7
100
AcDbLine
 10
1460.552945
 20
1273.0
 30
0.0
 11
1557.447055
 21
1273.0
 31
0.0
  0
ARC
  5
E2
330
1F
100
AcDbEntity
  8
作図線（太線）
  6
Continuous
 62
     7
100
AcDbCircle
 10
1557.447055
 20
1289.552945
 30
0.0
 40
16.552945
100
AcDbArc
 50
270.0
 51
0.0
  0
LINE
  5
E3
330
1F
100
AcDbEntity
  8
作図線（太線）
  6
Continuous
 62
     7
100
AcDbLine
 10
1574.0
 20
1436.447055
 30
0.0
 11
1574.0
 21
1289.552945
 31
0.0
  0
ARC
  5
E4
330
1F
100
AcDbEntity
  8
作図線（太線）
  6
Continuous
 62
     7
100
AcDbCircle
 10
1557.447055
 20
1436.447055
 30
0.0
 40
16.552945
100
AcDbArc
 50
0.0
 51
90.0
  0
LINE
  5
E5
330
1F
100
AcDbEntity
  8
作図線（太線）
  6
Continuous
 62
     7
100
AcDbLine
 10
1539.0
 20
1403.0
 30
0.0
 11
1539.0
 21
1393.0
 31
0.0
  0
ARC
  5
E6
330
1F
100
AcDbEntity
  8
作図線（太線）
  6
Continuous
 62
     7
100
AcDbCircle
 10
597.0
 20
1730.522718
 30
0.0
 40
40.0
100
AcDbArc
 50
90.0
 51
180.0
  0
LINE
  5
E7
330
1F
100
AcDbEntity
  8
作図線（太線）
  6
Continuous
 62
     7
100
AcDbLine
 10
777.0
 20
1770.522718
 30
0.0
 11
597.0
 21
1770.522718
 31
0.0
  0
ARC
  5
E8
330
1F
100
AcDbEntity
  8
作図線（太線）
  6
Continuous
 62
     7
100
AcDbCircle
 10
777.0
 20
1730.522718
 30
0.0
 40
40.0
100
AcDbArc
 50
0.0
 51
90.0
  0
LINE
  5
E9
330
1F
100
AcDbEntity
  8
作図線（太線）
  6
Continuous
 62
     7
100
AcDbLine
 10
817.0
 20
1720.522718
 30
0.0
 11
557.0
 21
1720.522718
 31
0.0
  0
CIRCLE
  5
EA
330
1F
100
AcDbEntity
  8
作図線（太線）
  6
Continuous
 62
     7
100
AcDbCircle
 10
627.0
 20
1740.522718
 30
0.0
 40
11.0
  0
ARC
  5
EB
330
1F
100
AcDbEntity
  8
作図線（太線）
  6
Continuous
 62
     7
100
AcDbCircle
 10
627.0
 20
1740.522718
 30
0.0
 40
20.0
100
AcDbArc
 50
0.0
 51
180.0
  0
LINE
  5
EC
330
1F
100
AcDbEntity
  8
作図線（太線）
  6
Continuous
 62
     7
100
AcDbLine
 10
607.0
 20
1740.522718
 30
0.0
 11
607.0
 21
1735.522718
 31
0.0
  0
LINE
  5
ED
330
1F
100
AcDbEntity
  8
作図線（太線）
  6
Continuous
 62
     7
100
AcDbLine
 10
647.0
 20
1740.522718
 30
0.0
 11
647.0
 21
1735.522718
 31
0.0
  0
LINE
  5
EE
330
1F
100
AcDbEntity
  8
作図線（太線）
  6
EXLTYPE3
 62
     3
100
AcDbLine
 10
627.0
 20
1720.522718
 30
0.0
 11
627.0
 21
1727.695639
 31
0.0
  0
CIRCLE
  5
EF
330
1F
100
AcDbEntity
  8
作図線（太線）
  6
Continuous
 62
     7
100
AcDbCircle
 10
747.0
 20
1740.522718
 30
0.0
 40
11.0
  0
ARC
  5
F0
330
1F
100
AcDbEntity
  8
作図線（太線）
  6
Continuous
 62
     7
100
AcDbCircle
 10
747.0
 20
1740.522718
 30
0.0
 40
20.0
100
AcDbArc
 50
0.0
 51
180.0
  0
LINE
  5
F1
330
1F
100
AcDbEntity
  8
作図線（太線）
  6
Continuous
 62
     7
100
AcDbLine
 10
767.0
 20
1740.522718
 30
0.0
 11
767.0
 21
1735.522718
 31
0.0
  0
LINE
  5
F2
330
1F
100
AcDbEntity
  8
作図線（太線）
  6
Continuous
 62
     7
100
AcDbLine
 10
727.0
 20
1740.522718
 30
0.0
 11
727.0
 21
1735.522718
 31
0.0
  0
LINE
  5
F3
330
1F
100
AcDbEntity
  8
作図線（太線）
  6
Continuous
 62
     7
100
AcDbLine
 10
817.0
 20
1466.0
 30
0.0
 11
817.0
 21
1730.522718
 31
0.0
  0
LINE
  5
F4
330
1F
100
AcDbEntity
  8
作図線（太線）
  6
Continuous
 62
     7
100
AcDbLine
 10
557.0
 20
1466.0
 30
0.0
 11
557.0
 21
1730.522718
 31
0.0
  0
LINE
  5
F5
330
1F
100
AcDbEntity
  8
作図線（太線）
  6
Continuous
 62
     7
100
AcDbLine
 10
817.0
 20
1466.0
 30
0.0
 11
557.0
 21
1466.0
 31
0.0
  0
ARC
  5
F6
330
1F
100
AcDbEntity
  8
作図線（太線）
  6
Continuous
 62
     7
100
AcDbCircle
 10
571.0
 20
1449.0
 30
0.0
 40
5.0
100
AcDbArc
 50
90.0
 51
180.0
  0
ARC
  5
F7
330
1F
100
AcDbEntity
  8
作図線（太線）
  6
Continuous
 62
     7
100
AcDbCircle
 10
803.0
 20
1449.0
 30
0.0
 40
5.0
100
AcDbArc
 50
0.0
 51
90.0
  0
LINE
  5
F8
330
1F
100
AcDbEntity
  8
作図線（太線）
  6
Continuous
 62
     7
100
AcDbLine
 10
803.0
 20
1454.0
 30
0.0
 11
571.0
 21
1454.0
 31
0.0
  0
LINE
  5
F9
330
1F
100
AcDbEntity
  8
作図線（太線）
  6
Continuous
 62
     7
100
AcDbLine
 10
577.0
 20
1454.0
 30
0.0
 11
577.0
 21
1466.0
 31
0.0
  0
ARC
  5
FA
330
1F
100
AcDbEntity
  8
作図線（太線）
  6
Continuous
 62
     7
100
AcDbCircle
 10
803.0
 20
1449.0
 30
0.0
 40
5.0
100
AcDbArc
 50
0.0
 51
90.0
  0
LINE
  5
FB
330
1F
100
AcDbEntity
  8
作図線（太線）
  6
Continuous
 62
     7
100
AcDbLine
 10
797.0
 20
1454.0
 30
0.0
 11
797.0
 21
1466.0
 31
0.0
  0
ARC
  5
FC
330
1F
100
AcDbEntity
  8
作図線（太線）
  6
Continuous
 62
     7
100
AcDbCircle
 10
560.144
 20
1464.6
 30
0.0
 40
1.856
100
AcDbArc
 50
285.706628
 51
0.0
  0
LINE
  5
FD
330
1F
100
AcDbEntity
  8
作図線（太線）
  6
Continuous
 62
     7
100
AcDbLine
 10
562.0
 20
1466.0
 30
0.0
 11
562.0
 21
1464.6
 31
0.0
  0
ARC
  5
FE
330
1F
100
AcDbEntity
  8
作図線（太線）
  6
Continuous
 62
     7
100
AcDbCircle
 10
562.0
 20
1458.0
 30
0.0
 40
5.0
100
AcDbArc
 50
105.706628
 51
180.0
  0
ARC
  5
FF
330
1F
100
AcDbEntity
  8
作図線（太線）
  6
Continuous
 62
     7
100
AcDbCircle
 10
803.0
 20
1449.0
 30
0.0
 40
5.0
100
AcDbArc
 50
0.0
 51
90.0
  0
LINE
  5
100
330
1F
100
AcDbEntity
  8
作図線（太線）
  6
Continuous
 62
     7
100
AcDbLine
 10
797.0
 20
1454.0
 30
0.0
 11
797.0
 21
1466.0
 31
0.0
  0
ARC
  5
101
330
1F
100
AcDbEntity
  8
作図線（太線）
  6
Continuous
 62
     7
100
AcDbCircle
 10
813.856
 20
1464.6
 30
0.0
 40
1.856
100
AcDbArc
 50
180.0
 51
254.293372
  0
LINE
  5
102
330
1F
100
AcDbEntity
  8
作図線（太線）
  6
Continuous
 62
     7
100
AcDbLine
 10
812.0
 20
1466.0
 30
0.0
 11
812.0
 21
1464.6
 31
0.0
  0
ARC
  5
103
330
1F
100
AcDbEntity
  8
作図線（太線）
  6
Continuous
 62
     7
100
AcDbCircle
 10
812.0
 20
1458.0
 30
0.0
 40
5.0
100
AcDbArc
 50
0.0
 51
74.293372
  0
LINE
  5
104
330
1F
100
AcDbEntity
  8
作図線（太線）
  6
Continuous
 62
     7
100
AcDbLine
 10
557.0
 20
1458.0
 30
0.0
 11
557.0
 21
1051.0
 31
0.0
  0
LINE
  5
105
330
1F
100
AcDbEntity
  8
作図線（太線）
  6
Continuous
 62
     7
100
AcDbLine
 10
566.0
 20
1449.0
 30
0.0
 11
566.0
 21
1306.0
 31
0.0
  0
ARC
  5
106
330
1F
100
AcDbEntity
  8
作図線（太線）
  6
Continuous
 62
     7
100
AcDbCircle
 10
576.0
 20
1306.0
 30
0.0
 40
10.0
100
AcDbArc
 50
180.0
 51
270.0
  0
LINE
  5
107
330
1F
100
AcDbEntity
  8
作図線（太線）
  6
Continuous
 62
     7
100
AcDbLine
 10
817.0
 20
1458.0
 30
0.0
 11
817.0
 21
1051.0
 31
0.0
  0
LINE
  5
108
330
1F
100
AcDbEntity
  8
作図線（太線）
  6
Continuous
 62
     7
100
AcDbLine
 10
808.0
 20
1449.0
 30
0.0
 11
808.0
 21
1306.0
 31
0.0
  0
LINE
  5
109
330
1F
100
AcDbEntity
  8
作図線（太線）
  6
Continuous
 62
     7
100
AcDbLine
 10
827.0
 20
1429.0
 30
0.0
 11
877.0
 21
1429.0
 31
0.0
  0
ARC
  5
10A
330
1F
100
AcDbEntity
  8
作図線（太線）
  6
Continuous
 62
     7
100
AcDbCircle
 10
827.0
 20
1419.0
 30
0.0
 40
10.0
100
AcDbArc
 50
90.0
 51
180.0
  0
LINE
  5
10B
330
1F
100
AcDbEntity
  8
作図線（太線）
  6
Continuous
 62
     7
100
AcDbLine
 10
817.0
 20
1419.0
 30
0.0
 11
817.0
 21
1339.0
 31
0.0
  0
LINE
  5
10C
330
1F
100
AcDbEntity
  8
作図線（太線）
  6
Continuous
 62
     7
100
AcDbLine
 10
827.0
 20
1329.0
 30
0.0
 11
877.0
 21
1329.0
 31
0.0
  0
ARC
  5
10D
330
1F
100
AcDbEntity
  8
作図線（太線）
  6
Continuous
 62
     7
100
AcDbCircle
 10
877.0
 20
1339.0
 30
0.0
 40
10.0
100
AcDbArc
 50
270.0
 51
0.0
  0
LINE
  5
10E
330
1F
100
AcDbEntity
  8
作図線（太線）
  6
Continuous
 62
     7
100
AcDbLine
 10
887.0
 20
1419.0
 30
0.0
 11
887.0
 21
1339.0
 31
0.0
  0
ARC
  5
10F
330
1F
100
AcDbEntity
  8
作図線（太線）
  6
Continuous
 62
     7
100
AcDbCircle
 10
877.0
 20
1419.0
 30
0.0
 40
10.0
100
AcDbArc
 50
0.0
 51
90.0
  0
ARC
  5
110
330
1F
100
AcDbEntity
  8
作図線（太線）
  6
Continuous
 62
     7
100
AcDbCircle
 10
827.0
 20
1339.0
 30
0.0
 40
10.0
100
AcDbArc
 50
223.567905
 51
270.0
  0
CIRCLE
  5
111
330
1F
100
AcDbEntity
  8
作図線（太線）
  6
Continuous
 62
     7
100
AcDbCircle
 10
687.0
 20
1368.0
 30
0.0
 40
55.0
  0
ARC
  5
112
330
1F
100
AcDbEntity
  8
作図線（太線）
  6
Continuous
 62
     7
100
AcDbCircle
 10
737.0
 20
1305.55002
 30
0.0
 40
20.0
100
AcDbArc
 50
128.682187
 51
180.0
  0
ARC
  5
113
330
1F
100
AcDbEntity
  8
作図線（太線）
  6
Continuous
 62
     7
100
AcDbCircle
 10
637.0
 20
1305.55002
 30
0.0
 40
20.0
100
AcDbArc
 50
0.0
 51
51.317813
  0
ARC
  5
114
330
1F
100
AcDbEntity
  8
作図線（太線）
  6
Continuous
 62
     7
100
AcDbCircle
 10
687.0
 20
1368.0
 30
0.0
 40
60.0
100
AcDbArc
 50
308.682187
 51
231.317813
  0
CIRCLE
  5
115
330
1F
100
AcDbEntity
  8
作図線（太線）
  6
Continuous
 62
     7
100
AcDbCircle
 10
687.0
 20
1368.0
 30
0.0
 40
46.5
  0
CIRCLE
  5
116
330
1F
100
AcDbEntity
  8
作図線（太線）
  6
Continuous
 62
     7
100
AcDbCircle
 10
668.0
 20
1368.0
 30
0.0
 40
7.0
  0
CIRCLE
  5
117
330
1F
100
AcDbEntity
  8
作図線（太線）
  6
Continuous
 62
     7
100
AcDbCircle
 10
706.0
 20
1368.0
 30
0.0
 40
7.0
  0
CIRCLE
  5
118
330
1F
100
AcDbEntity
  8
作図線（太線）
  6
Continuous
 62
     7
100
AcDbCircle
 10
687.0
 20
1348.0
 30
0.0
 40
4.0
  0
LINE
  5
119
330
1F
100
AcDbEntity
  8
作図線（太線）
  6
Continuous
 62
     7
100
AcDbLine
 10
752.0
 20
1319.0
 30
0.0
 11
736.448529
 21
1303.448529
 31
0.0
  0
LINE
  5
11A
330
1F
100
AcDbEntity
  8
作図線（太線）
  6
Continuous
 62
     7
100
AcDbLine
 10
645.0
 20
1178.0
 30
0.0
 11
642.0
 21
1178.0
 31
0.0
  0
LINE
  5
11B
330
1F
100
AcDbEntity
  8
作図線（太線）
  6
Continuous
 62
     7
100
AcDbLine
 10
637.0
 20
1089.0
 30
0.0
 11
637.0
 21
1173.0
 31
0.0
  0
ARC
  5
11C
330
1F
100
AcDbEntity
  8
作図線（太線）
  6
Continuous
 62
     7
100
AcDbCircle
 10
642.0
 20
1173.0
 30
0.0
 40
5.0
100
AcDbArc
 50
90.0
 51
180.0
  0
LINE
  5
11D
330
1F
100
AcDbEntity
  8
作図線（太線）
  6
Continuous
 62
     7
100
AcDbLine
 10
622.0
 20
1319.0
 30
0.0
 11
637.551471
 21
1303.448529
 31
0.0
  0
LINE
  5
11E
330
1F
100
AcDbEntity
  8
作図線（太線）
  6
Continuous
 62
     7
100
AcDbLine
 10
622.0
 20
1319.0
 30
0.0
 11
607.0
 21
1319.0
 31
0.0
  0
LINE
  5
11F
330
1F
100
AcDbEntity
  8
作図線（太線）
  6
Continuous
 62
     7
100
AcDbLine
 10
637.551471
 20
1303.448529
 30
0.0
 11
642.0
 21
1178.0
 31
0.0
  0
LINE
  5
120
330
1F
100
AcDbEntity
  8
作図線（太線）
  6
Continuous
 62
     7
100
AcDbLine
 10
622.0
 20
1094.0
 30
0.0
 11
622.0
 21
1319.0
 31
0.0
  0
LINE
  5
121
330
1F
100
AcDbEntity
  8
作図線（太線）
  6
Continuous
 62
     7
100
AcDbLine
 10
632.0
 20
1089.0
 30
0.0
 11
632.0
 21
1092.5
 31
0.0
  0
LINE
  5
122
330
1F
100
AcDbEntity
  8
作図線（太線）
  6
Continuous
 62
     7
100
AcDbLine
 10
637.0
 20
1089.0
 30
0.0
 11
632.0
 21
1089.0
 31
0.0
  0
LINE
  5
123
330
1F
100
AcDbEntity
  8
作図線（太線）
  6
Continuous
 62
     7
100
AcDbLine
 10
622.0
 20
1094.0
 30
0.0
 11
622.0
 21
1092.5
 31
0.0
  0
LINE
  5
124
330
1F
100
AcDbEntity
  8
作図線（太線）
  6
Continuous
 62
     7
100
AcDbLine
 10
607.0
 20
1092.5
 30
0.0
 11
607.0
 21
1096.0
 31
0.0
  0
ARC
  5
125
330
1F
100
AcDbEntity
  8
作図線（太線）
  6
Continuous
 62
     7
100
AcDbCircle
 10
612.0
 20
1084.0
 30
0.0
 40
10.0
100
AcDbArc
 50
146.632987
 51
180.0
  0
ARC
  5
126
330
1F
100
AcDbEntity
  8
作図線（太線）
  6
Continuous
 62
     7
100
AcDbCircle
 10
612.0
 20
1084.0
 30
0.0
 40
10.0
100
AcDbArc
 50
120.0
 51
121.788331
  0
LINE
  5
127
330
1F
100
AcDbEntity
  8
作図線（太線）
  6
Continuous
 62
     7
100
AcDbLine
 10
581.0
 20
1092.5
 30
0.0
 11
581.0
 21
1089.5
 31
0.0
  0
LINE
  5
128
330
1F
100
AcDbEntity
  8
作図線（太線）
  6
Continuous
 62
     7
100
AcDbLine
 10
632.0
 20
1092.5
 30
0.0
 11
581.0
 21
1092.5
 31
0.0
  0
LINE
  5
129
330
1F
100
AcDbEntity
  8
作図線（太線）
  6
Continuous
 62
     7
100
AcDbLine
 10
632.0
 20
1089.5
 30
0.0
 11
581.0
 21
1089.5
 31
0.0
  0
LINE
  5
12A
330
1F
100
AcDbEntity
  8
作図線（太線）
  6
Continuous
 62
     7
100
AcDbLine
 10
637.0
 20
1089.0
 30
0.0
 11
632.0
 21
1089.0
 31
0.0
  0
LINE
  5
12B
330
1F
100
AcDbEntity
  8
作図線（太線）
  6
Continuous
 62
     7
100
AcDbLine
 10
607.0
 20
1092.5
 30
0.0
 11
607.0
 21
1094.0
 31
0.0
  0
LINE
  5
12C
330
1F
100
AcDbEntity
  8
作図線（太線）
  6
Continuous
 62
     7
100
AcDbLine
 10
622.0
 20
1296.0
 30
0.0
 11
576.0
 21
1296.0
 31
0.0
  0
LINE
  5
12D
330
1F
100
AcDbEntity
  8
作図線（太線）
  6
Continuous
 62
     7
100
AcDbLine
 10
607.0
 20
1296.0
 30
0.0
 11
607.0
 21
1319.0
 31
0.0
  0
LINE
  5
12E
330
1F
100
AcDbEntity
  8
作図線（太線）
  6
Continuous
 62
     7
100
AcDbLine
 10
579.0
 20
1096.0
 30
0.0
 11
579.0
 21
1296.0
 31
0.0
  0
CIRCLE
  5
12F
330
1F
100
AcDbEntity
  8
作図線（太線）
  6
Continuous
 62
     7
100
AcDbCircle
 10
597.0
 20
1236.0
 30
0.0
 40
5.0
  0
LINE
  5
130
330
1F
100
AcDbEntity
  8
作図線（太線）
  6
Continuous
 62
     7
100
AcDbLine
 10
597.0
 20
1241.773503
 30
0.0
 11
592.0
 21
1238.886751
 31
0.0
  0
LINE
  5
131
330
1F
100
AcDbEntity
  8
作図線（太線）
  6
Continuous
 62
     7
100
AcDbLine
 10
602.0
 20
1238.886751
 30
0.0
 11
597.0
 21
1241.773503
 31
0.0
  0
LINE
  5
132
330
1F
100
AcDbEntity
  8
作図線（太線）
  6
Continuous
 62
     7
100
AcDbLine
 10
602.0
 20
1233.113249
 30
0.0
 11
602.0
 21
1238.886751
 31
0.0
  0
LINE
  5
133
330
1F
100
AcDbEntity
  8
作図線（太線）
  6
Continuous
 62
     7
100
AcDbLine
 10
592.0
 20
1233.113249
 30
0.0
 11
597.0
 21
1230.226497
 31
0.0
  0
LINE
  5
134
330
1F
100
AcDbEntity
  8
作図線（太線）
  6
Continuous
 62
     7
100
AcDbLine
 10
597.0
 20
1230.226497
 30
0.0
 11
602.0
 21
1233.113249
 31
0.0
  0
LINE
  5
135
330
1F
100
AcDbEntity
  8
作図線（太線）
  6
Continuous
 62
     7
100
AcDbLine
 10
592.0
 20
1238.886751
 30
0.0
 11
592.0
 21
1233.113249
 31
0.0
  0
CIRCLE
  5
136
330
1F
100
AcDbEntity
  8
作図線（太線）
  6
Continuous
 62
     7
100
AcDbCircle
 10
597.0
 20
1236.0
 30
0.0
 40
3.3
  0
CIRCLE
  5
137
330
1F
100
AcDbEntity
  8
作図線（太線）
  6
Continuous
 62
     7
100
AcDbCircle
 10
597.0
 20
1236.0
 30
0.0
 40
2.4
  0
LINE
  5
138
330
1F
100
AcDbEntity
  8
作図線（太線）
  6
Continuous
 62
     7
100
AcDbLine
 10
592.0
 20
1238.886751
 30
0.0
 11
592.0
 21
1233.113249
 31
0.0
  0
LINE
  5
139
330
1F
100
AcDbEntity
  8
作図線（太線）
  6
EXLTYPE2
 62
     7
100
AcDbLine
 10
624.0
 20
1091.8
 30
0.0
 11
626.3
 21
1089.5
 31
0.0
  0
LINE
  5
13A
330
1F
100
AcDbEntity
  8
作図線（太線）
  6
EXLTYPE2
 62
     7
100
AcDbLine
 10
624.0
 20
1091.8
 30
0.0
 11
624.0
 21
1092.5
 31
0.0
  0
LINE
  5
13B
330
1F
100
AcDbEntity
  8
作図線（太線）
  6
EXLTYPE2
 62
     7
100
AcDbLine
 10
620.0
 20
1091.8
 30
0.0
 11
617.7
 21
1089.5
 31
0.0
  0
LINE
  5
13C
330
1F
100
AcDbEntity
  8
作図線（太線）
  6
EXLTYPE2
 62
     7
100
AcDbLine
 10
620.0
 20
1091.8
 30
0.0
 11
620.0
 21
1092.5
 31
0.0
  0
LINE
  5
13D
330
1F
100
AcDbEntity
  8
作図線（太線）
  6
EXLTYPE2
 62
     7
100
AcDbLine
 10
624.0
 20
1091.8
 30
0.0
 11
620.0
 21
1091.8
 31
0.0
  0
LINE
  5
13E
330
1F
100
AcDbEntity
  8
作図線（太線）
  6
Continuous
 62
     7
100
AcDbLine
 10
557.0
 20
1096.0
 30
0.0
 11
622.0
 21
1096.0
 31
0.0
  0
LINE
  5
13F
330
1F
100
AcDbEntity
  8
作図線（太線）
  6
Continuous
 62
     1
100
AcDbLine
 10
689.0
 20
1089.0
 30
0.0
 11
728.0
 21
1089.0
 31
0.0
  0
LINE
  5
140
330
1F
100
AcDbEntity
  8
作図線（太線）
  6
Continuous
 62
     7
100
AcDbLine
 10
647.5
 20
1181.0
 30
0.0
 11
647.5
 21
1195.0
 31
0.0
  0
LINE
  5
141
330
1F
100
AcDbEntity
  8
作図線（太線）
  6
Continuous
 62
     7
100
AcDbLine
 10
726.5
 20
1181.0
 30
0.0
 11
726.5
 21
1195.0
 31
0.0
  0
LINE
  5
142
330
1F
100
AcDbEntity
  8
作図線（太線）
  6
Continuous
 62
     7
100
AcDbLine
 10
726.5
 20
1195.0
 30
0.0
 11
647.5
 21
1195.0
 31
0.0
  0
LINE
  5
143
330
1F
100
AcDbEntity
  8
作図線（太線）
  6
Continuous
 62
     7
100
AcDbLine
 10
726.5
 20
1181.2
 30
0.0
 11
647.5
 21
1181.2
 31
0.0
  0
LINE
  5
144
330
1F
100
AcDbEntity
  8
作図線（太線）
  6
Continuous
 62
     7
100
AcDbLine
 10
647.0
 20
1181.0
 30
0.0
 11
647.0
 21
1180.0
 31
0.0
  0
ARC
  5
145
330
1F
100
AcDbEntity
  8
作図線（太線）
  6
Continuous
 62
     7
100
AcDbCircle
 10
645.0
 20
1180.0
 30
0.0
 40
2.0
100
AcDbArc
 50
270.0
 51
0.0
  0
LINE
  5
146
330
1F
100
AcDbEntity
  8
作図線（太線）
  6
Continuous
 62
     7
100
AcDbLine
 10
727.0
 20
1181.0
 30
0.0
 11
647.0
 21
1181.0
 31
0.0
  0
LINE
  5
147
330
1F
100
AcDbEntity
  8
作図線（太線）
  6
Continuous
 62
     7
100
AcDbLine
 10
727.0
 20
1181.0
 30
0.0
 11
727.0
 21
1180.0
 31
0.0
  0
ARC
  5
148
330
1F
100
AcDbEntity
  8
作図線（太線）
  6
Continuous
 62
     7
100
AcDbCircle
 10
729.0
 20
1180.0
 30
0.0
 40
2.0
100
AcDbArc
 50
180.0
 51
270.0
  0
LINE
  5
149
330
1F
100
AcDbEntity
  8
作図線（太線）
  6
Continuous
 62
     7
100
AcDbLine
 10
645.0
 20
1178.0
 30
0.0
 11
732.0
 21
1178.0
 31
0.0
  0
ARC
  5
14A
330
1F
100
AcDbEntity
  8
作図線（太線）
  6
Continuous
 62
     7
100
AcDbCircle
 10
687.0
 20
1109.0
 30
0.0
 40
35.0
100
AcDbArc
 50
325.150095
 51
214.849905
  0
ARC
  5
14B
330
1F
100
AcDbEntity
  8
作図線（太線）
  6
Continuous
 62
     7
100
AcDbCircle
 10
687.0
 20
1109.0
 30
0.0
 40
30.0
100
AcDbArc
 50
318.189685
 51
221.810315
  0
CIRCLE
  5
14C
330
1F
100
AcDbEntity
  8
作図線（太線）
  6
Continuous
 62
     7
100
AcDbCircle
 10
687.0
 20
1171.0
 30
0.0
 40
5.0
  0
LINE
  5
14D
330
1F
100
AcDbEntity
  8
作図線（太線）
  6
Continuous
 62
     7
100
AcDbLine
 10
687.0
 20
1176.773503
 30
0.0
 11
682.0
 21
1173.886751
 31
0.0
  0
LINE
  5
14E
330
1F
100
AcDbEntity
  8
作図線（太線）
  6
Continuous
 62
     7
100
AcDbLine
 10
692.0
 20
1173.886751
 30
0.0
 11
687.0
 21
1176.773503
 31
0.0
  0
LINE
  5
14F
330
1F
100
AcDbEntity
  8
作図線（太線）
  6
Continuous
 62
     7
100
AcDbLine
 10
692.0
 20
1168.113249
 30
0.0
 11
692.0
 21
1173.886751
 31
0.0
  0
LINE
  5
150
330
1F
100
AcDbEntity
  8
作図線（太線）
  6
Continuous
 62
     7
100
AcDbLine
 10
682.0
 20
1168.113249
 30
0.0
 11
687.0
 21
1165.226497
 31
0.0
  0
LINE
  5
151
330
1F
100
AcDbEntity
  8
作図線（太線）
  6
Continuous
 62
     7
100
AcDbLine
 10
687.0
 20
1165.226497
 30
0.0
 11
692.0
 21
1168.113249
 31
0.0
  0
LINE
  5
152
330
1F
100
AcDbEntity
  8
作図線（太線）
  6
Continuous
 62
     7
100
AcDbLine
 10
682.0
 20
1173.886751
 30
0.0
 11
682.0
 21
1168.113249
 31
0.0
  0
CIRCLE
  5
153
330
1F
100
AcDbEntity
  8
作図線（太線）
  6
Continuous
 62
     7
100
AcDbCircle
 10
687.0
 20
1171.0
 30
0.0
 40
3.3
  0
CIRCLE
  5
154
330
1F
100
AcDbEntity
  8
作図線（太線）
  6
Continuous
 62
     7
100
AcDbCircle
 10
687.0
 20
1171.0
 30
0.0
 40
2.4
  0
LINE
  5
155
330
1F
100
AcDbEntity
  8
作図線（太線）
  6
Continuous
 62
     7
100
AcDbLine
 10
682.0
 20
1173.886751
 30
0.0
 11
682.0
 21
1168.113249
 31
0.0
  0
LINE
  5
156
330
1F
100
AcDbEntity
  8
作図線（太線）
  6
Continuous
 62
     7
100
AcDbLine
 10
737.0
 20
1089.0
 30
0.0
 11
637.0
 21
1089.0
 31
0.0
  0
LINE
  5
157
330
1F
100
AcDbEntity
  8
作図線（太線）
  6
Continuous
 62
     7
100
AcDbLine
 10
737.0
 20
1089.0
 30
0.0
 11
737.0
 21
1173.0
 31
0.0
  0
ARC
  5
158
330
1F
100
AcDbEntity
  8
作図線（太線）
  6
Continuous
 62
     7
100
AcDbCircle
 10
732.0
 20
1173.0
 30
0.0
 40
5.0
100
AcDbArc
 50
0.0
 51
90.0
  0
LINE
  5
159
330
1F
100
AcDbEntity
  8
作図線（太線）
  6
Continuous
 62
     7
100
AcDbLine
 10
706.0
 20
1204.0
 30
0.0
 11
668.0
 21
1204.0
 31
0.0
  0
LINE
  5
15A
330
1F
100
AcDbEntity
  8
作図線（太線）
  6
Continuous
 62
     7
100
AcDbLine
 10
706.0
 20
1216.0
 30
0.0
 11
668.0
 21
1216.0
 31
0.0
  0
LINE
  5
15B
330
1F
100
AcDbEntity
  8
作図線（太線）
  6
Continuous
 62
     7
100
AcDbLine
 10
668.0
 20
1204.0
 30
0.0
 11
668.0
 21
1216.0
 31
0.0
  0
LINE
  5
15C
330
1F
100
AcDbEntity
  8
作図線（太線）
  6
Continuous
 62
     7
100
AcDbLine
 10
706.0
 20
1204.0
 30
0.0
 11
706.0
 21
1216.0
 31
0.0
  0
LINE
  5
15D
330
1F
100
AcDbEntity
  8
作図線（太線）
  6
Continuous
 62
     7
100
AcDbLine
 10
669.0
 20
1216.0
 30
0.0
 11
669.0
 21
1220.0
 31
0.0
  0
LINE
  5
15E
330
1F
100
AcDbEntity
  8
作図線（太線）
  6
Continuous
 62
     7
100
AcDbLine
 10
705.0
 20
1216.0
 30
0.0
 11
705.0
 21
1220.0
 31
0.0
  0
LINE
  5
15F
330
1F
100
AcDbEntity
  8
作図線（太線）
  6
Continuous
 62
     7
100
AcDbLine
 10
668.0
 20
1204.0
 30
0.0
 11
671.462746
 21
1195.0
 31
0.0
  0
LINE
  5
160
330
1F
100
AcDbEntity
  8
作図線（太線）
  6
Continuous
 62
     7
100
AcDbLine
 10
706.0
 20
1204.0
 30
0.0
 11
702.537254
 21
1195.0
 31
0.0
  0
LINE
  5
161
330
1F
100
AcDbEntity
  8
作図線（太線）
  6
Continuous
 62
     7
100
AcDbLine
 10
717.0
 20
1220.0
 30
0.0
 11
657.0
 21
1220.0
 31
0.0
  0
LINE
  5
162
330
1F
100
AcDbEntity
  8
作図線（太線）
  6
Continuous
 62
     7
100
AcDbLine
 10
663.25
 20
1249.270248
 30
0.0
 11
680.4375
 21
1256.222934
 31
0.0
  0
LINE
  5
163
330
1F
100
AcDbEntity
  8
作図線（太線）
  6
Continuous
 62
     7
100
AcDbLine
 10
693.5625
 20
1256.222934
 30
0.0
 11
710.75
 21
1249.270248
 31
0.0
  0
LINE
  5
164
330
1F
100
AcDbEntity
  8
作図線（太線）
  6
Continuous
 62
     7
100
AcDbLine
 10
693.5625
 20
1223.777066
 30
0.0
 11
710.75
 21
1230.729752
 31
0.0
  0
LINE
  5
165
330
1F
100
AcDbEntity
  8
作図線（太線）
  6
Continuous
 62
     7
100
AcDbLine
 10
663.25
 20
1230.729752
 30
0.0
 11
680.4375
 21
1223.777066
 31
0.0
  0
ARC
  5
166
330
1F
100
AcDbEntity
  8
作図線（太線）
  6
Continuous
 62
     7
100
AcDbCircle
 10
667.0
 20
1240.0
 30
0.0
 40
10.0
100
AcDbArc
 50
112.024313
 51
247.975687
  0
ARC
  5
167
330
1F
100
AcDbEntity
  8
作図線（太線）
  6
Continuous
 62
     7
100
AcDbCircle
 10
687.0
 20
1240.0
 30
0.0
 40
17.5
100
AcDbArc
 50
67.975687
 51
112.024313
  0
ARC
  5
168
330
1F
100
AcDbEntity
  8
作図線（太線）
  6
Continuous
 62
     7
100
AcDbCircle
 10
707.0
 20
1240.0
 30
0.0
 40
10.0
100
AcDbArc
 50
292.024313
 51
67.975687
  0
ARC
  5
169
330
1F
100
AcDbEntity
  8
作図線（太線）
  6
Continuous
 62
     7
100
AcDbCircle
 10
687.0
 20
1240.0
 30
0.0
 40
17.5
100
AcDbArc
 50
247.975687
 51
292.024313
  0
LINE
  5
16A
330
1F
100
AcDbEntity
  8
作図線（太線）
  6
Continuous
 62
     7
100
AcDbLine
 10
652.0
 20
1259.0
 30
0.0
 11
657.0
 21
1254.0
 31
0.0
  0
LINE
  5
16B
330
1F
100
AcDbEntity
  8
作図線（太線）
  6
Continuous
 62
     7
100
AcDbLine
 10
662.0
 20
1249.0
 30
0.0
 11
662.320551
 21
1248.679449
 31
0.0
  0
LINE
  5
16C
330
1F
100
AcDbEntity
  8
作図線（太線）
  6
Continuous
 62
     7
100
AcDbLine
 10
652.0
 20
1259.0
 30
0.0
 11
639.12766
 21
1259.0
 31
0.0
  0
LINE
  5
16D
330
1F
100
AcDbEntity
  8
作図線（太線）
  6
Continuous
 62
     7
100
AcDbLine
 10
722.0
 20
1259.0
 30
0.0
 11
734.87234
 21
1259.0
 31
0.0
  0
LINE
  5
16E
330
1F
100
AcDbEntity
  8
作図線（太線）
  6
Continuous
 62
     7
100
AcDbLine
 10
722.0
 20
1259.0
 30
0.0
 11
717.0
 21
1254.0
 31
0.0
  0
LINE
  5
16F
330
1F
100
AcDbEntity
  8
作図線（太線）
  6
Continuous
 62
     7
100
AcDbLine
 10
717.0
 20
1220.0
 30
0.0
 11
717.0
 21
1305.55002
 31
0.0
  0
LINE
  5
170
330
1F
100
AcDbEntity
  8
作図線（太線）
  6
Continuous
 62
     7
100
AcDbLine
 10
657.0
 20
1220.0
 30
0.0
 11
657.0
 21
1305.55002
 31
0.0
  0
LINE
  5
171
330
1F
100
AcDbEntity
  8
作図線（太線）
  6
Continuous
 62
     7
100
AcDbLine
 10
736.448529
 20
1303.448529
 30
0.0
 11
732.0
 21
1178.0
 31
0.0
  0
LINE
  5
172
330
1F
100
AcDbEntity
  8
作図線（太線）
  6
Continuous
 62
     7
100
AcDbLine
 10
767.0
 20
1319.0
 30
0.0
 11
752.0
 21
1319.0
 31
0.0
  0
LINE
  5
173
330
1F
100
AcDbEntity
  8
作図線（太線）
  6
Continuous
 62
     7
100
AcDbLine
 10
752.0
 20
1296.0
 30
0.0
 11
798.0
 21
1296.0
 31
0.0
  0
LINE
  5
174
330
1F
100
AcDbEntity
  8
作図線（太線）
  6
Continuous
 62
     7
100
AcDbLine
 10
767.0
 20
1296.0
 30
0.0
 11
767.0
 21
1319.0
 31
0.0
  0
LINE
  5
175
330
1F
100
AcDbEntity
  8
作図線（太線）
  6
Continuous
 62
     7
100
AcDbLine
 10
752.0
 20
1293.0
 30
0.0
 11
752.0
 21
1319.0
 31
0.0
  0
LINE
  5
176
330
1F
100
AcDbEntity
  8
作図線（太線）
  6
Continuous
 62
     7
100
AcDbLine
 10
795.0
 20
1293.0
 30
0.0
 11
795.0
 21
1296.0
 31
0.0
  0
ARC
  5
177
330
1F
100
AcDbEntity
  8
作図線（太線）
  6
Continuous
 62
     7
100
AcDbCircle
 10
798.0
 20
1306.0
 30
0.0
 40
10.0
100
AcDbArc
 50
270.0
 51
275.73917
  0
ARC
  5
178
330
1F
100
AcDbEntity
  8
作図線（太線）
  6
Continuous
 62
     7
100
AcDbCircle
 10
798.0
 20
1306.0
 30
0.0
 40
10.0
100
AcDbArc
 50
314.427004
 51
0.0
  0
LINE
  5
179
330
1F
100
AcDbEntity
  8
作図線（太線）
  6
Continuous
 62
     7
100
AcDbLine
 10
795.0
 20
1096.0
 30
0.0
 11
795.0
 21
1253.0
 31
0.0
  0
LINE
  5
17A
330
1F
100
AcDbEntity
  8
作図線（太線）
  6
Continuous
 62
     7
100
AcDbLine
 10
752.0
 20
1094.0
 30
0.0
 11
752.0
 21
1253.0
 31
0.0
  0
CIRCLE
  5
17B
330
1F
100
AcDbEntity
  8
作図線（太線）
  6
Continuous
 62
     7
100
AcDbCircle
 10
777.0
 20
1236.0
 30
0.0
 40
5.0
  0
LINE
  5
17C
330
1F
100
AcDbEntity
  8
作図線（太線）
  6
Continuous
 62
     7
100
AcDbLine
 10
777.0
 20
1241.773503
 30
0.0
 11
772.0
 21
1238.886751
 31
0.0
  0
LINE
  5
17D
330
1F
100
AcDbEntity
  8
作図線（太線）
  6
Continuous
 62
     7
100
AcDbLine
 10
782.0
 20
1238.886751
 30
0.0
 11
777.0
 21
1241.773503
 31
0.0
  0
LINE
  5
17E
330
1F
100
AcDbEntity
  8
作図線（太線）
  6
Continuous
 62
     7
100
AcDbLine
 10
782.0
 20
1233.113249
 30
0.0
 11
782.0
 21
1238.886751
 31
0.0
  0
LINE
  5
17F
330
1F
100
AcDbEntity
  8
作図線（太線）
  6
Continuous
 62
     7
100
AcDbLine
 10
772.0
 20
1233.113249
 30
0.0
 11
777.0
 21
1230.226497
 31
0.0
  0
LINE
  5
180
330
1F
100
AcDbEntity
  8
作図線（太線）
  6
Continuous
 62
     7
100
AcDbLine
 10
777.0
 20
1230.226497
 30
0.0
 11
782.0
 21
1233.113249
 31
0.0
  0
LINE
  5
181
330
1F
100
AcDbEntity
  8
作図線（太線）
  6
Continuous
 62
     7
100
AcDbLine
 10
772.0
 20
1238.886751
 30
0.0
 11
772.0
 21
1233.113249
 31
0.0
  0
CIRCLE
  5
182
330
1F
100
AcDbEntity
  8
作図線（太線）
  6
Continuous
 62
     7
100
AcDbCircle
 10
777.0
 20
1236.0
 30
0.0
 40
3.3
  0
CIRCLE
  5
183
330
1F
100
AcDbEntity
  8
作図線（太線）
  6
Continuous
 62
     7
100
AcDbCircle
 10
777.0
 20
1236.0
 30
0.0
 40
2.4
  0
LINE
  5
184
330
1F
100
AcDbEntity
  8
作図線（太線）
  6
Continuous
 62
     7
100
AcDbLine
 10
772.0
 20
1238.886751
 30
0.0
 11
772.0
 21
1233.113249
 31
0.0
  0
LINE
  5
185
330
1F
100
AcDbEntity
  8
作図線（太線）
  6
Continuous
 62
     7
100
AcDbLine
 10
742.0
 20
1089.0
 30
0.0
 11
742.0
 21
1092.5
 31
0.0
  0
LINE
  5
186
330
1F
100
AcDbEntity
  8
作図線（太線）
  6
Continuous
 62
     7
100
AcDbLine
 10
737.0
 20
1089.0
 30
0.0
 11
742.0
 21
1089.0
 31
0.0
  0
LINE
  5
187
330
1F
100
AcDbEntity
  8
作図線（太線）
  6
Continuous
 62
     7
100
AcDbLine
 10
752.0
 20
1094.0
 30
0.0
 11
752.0
 21
1092.5
 31
0.0
  0
LINE
  5
188
330
1F
100
AcDbEntity
  8
作図線（太線）
  6
Continuous
 62
     7
100
AcDbLine
 10
767.0
 20
1092.5
 30
0.0
 11
767.0
 21
1096.0
 31
0.0
  0
ARC
  5
189
330
1F
100
AcDbEntity
  8
作図線（太線）
  6
Continuous
 62
     7
100
AcDbCircle
 10
762.0
 20
1084.0
 30
0.0
 40
10.0
100
AcDbArc
 50
0.0
 51
33.367013
  0
ARC
  5
18A
330
1F
100
AcDbEntity
  8
作図線（太線）
  6
Continuous
 62
     7
100
AcDbCircle
 10
762.0
 20
1084.0
 30
0.0
 40
10.0
100
AcDbArc
 50
58.211669
 51
59.99999999999999
  0
LINE
  5
18B
330
1F
100
AcDbEntity
  8
作図線（太線）
  6
Continuous
 62
     7
100
AcDbLine
 10
793.0
 20
1092.5
 30
0.0
 11
793.0
 21
1089.5
 31
0.0
  0
LINE
  5
18C
330
1F
100
AcDbEntity
  8
作図線（太線）
  6
Continuous
 62
     7
100
AcDbLine
 10
742.0
 20
1092.5
 30
0.0
 11
793.0
 21
1092.5
 31
0.0
  0
LINE
  5
18D
330
1F
100
AcDbEntity
  8
作図線（太線）
  6
Continuous
 62
     7
100
AcDbLine
 10
742.0
 20
1089.5
 30
0.0
 11
793.0
 21
1089.5
 31
0.0
  0
LINE
  5
18E
330
1F
100
AcDbEntity
  8
作図線（太線）
  6
Continuous
 62
     7
100
AcDbLine
 10
817.0
 20
1096.0
 30
0.0
 11
752.0
 21
1096.0
 31
0.0
  0
LINE
  5
18F
330
1F
100
AcDbEntity
  8
作図線（太線）
  6
EXLTYPE2
 62
     7
100
AcDbLine
 10
750.0
 20
1091.8
 30
0.0
 11
747.7
 21
1089.5
 31
0.0
  0
LINE
  5
190
330
1F
100
AcDbEntity
  8
作図線（太線）
  6
EXLTYPE2
 62
     7
100
AcDbLine
 10
750.0
 20
1091.8
 30
0.0
 11
750.0
 21
1092.5
 31
0.0
  0
LINE
  5
191
330
1F
100
AcDbEntity
  8
作図線（太線）
  6
EXLTYPE2
 62
     7
100
AcDbLine
 10
754.0
 20
1091.8
 30
0.0
 11
756.3
 21
1089.5
 31
0.0
  0
LINE
  5
192
330
1F
100
AcDbEntity
  8
作図線（太線）
  6
EXLTYPE2
 62
     7
100
AcDbLine
 10
754.0
 20
1091.8
 30
0.0
 11
754.0
 21
1092.5
 31
0.0
  0
LINE
  5
193
330
1F
100
AcDbEntity
  8
作図線（太線）
  6
EXLTYPE2
 62
     7
100
AcDbLine
 10
750.0
 20
1091.8
 30
0.0
 11
754.0
 21
1091.8
 31
0.0
  0
ARC
  5
194
330
1F
100
AcDbEntity
  8
作図線（太線）
  6
Continuous
 62
     7
100
AcDbCircle
 10
762.0
 20
1051.0
 30
0.0
 40
10.0
100
AcDbArc
 50
270.0
 51
0.0
  0
ARC
  5
195
330
1F
100
AcDbEntity
  8
作図線（太線）
  6
Continuous
 62
     7
100
AcDbCircle
 10
612.0
 20
1051.0
 30
0.0
 40
10.0
100
AcDbArc
 50
180.0
 51
270.0
  0
LINE
  5
196
330
1F
100
AcDbEntity
  8
作図線（太線）
  6
Continuous
 62
     7
100
AcDbLine
 10
762.0
 20
1041.0
 30
0.0
 11
612.0
 21
1041.0
 31
0.0
  0
LINE
  5
197
330
1F
100
AcDbEntity
  8
作図線（太線）
  6
Continuous
 62
     7
100
AcDbLine
 10
772.0
 20
1051.0
 30
0.0
 11
772.0
 21
1084.0
 31
0.0
  0
LINE
  5
198
330
1F
100
AcDbEntity
  8
作図線（太線）
  6
Continuous
 62
     7
100
AcDbLine
 10
602.0
 20
1051.0
 30
0.0
 11
602.0
 21
1084.0
 31
0.0
  0
ARC
  5
199
330
1F
100
AcDbEntity
  8
作図線（太線）
  6
Continuous
 62
     7
100
AcDbCircle
 10
547.0
 20
1051.0
 30
0.0
 40
10.0
100
AcDbArc
 50
270.0
 51
0.0
  0
LINE
  5
19A
330
1F
100
AcDbEntity
  8
作図線（太線）
  6
Continuous
 62
     7
100
AcDbLine
 10
547.0
 20
1041.0
 30
0.0
 11
512.0
 21
1041.0
 31
0.0
  0
LINE
  5
19B
330
1F
100
AcDbEntity
  8
作図線（太線）
  6
Continuous
 62
     7
100
AcDbLine
 10
512.0
 20
1011.0
 30
0.0
 11
512.0
 21
1041.0
 31
0.0
  0
LINE
  5
19C
330
1F
100
AcDbEntity
  8
作図線（太線）
  6
Continuous
 62
     7
100
AcDbLine
 10
862.0
 20
1011.0
 30
0.0
 11
512.0
 21
1011.0
 31
0.0
  0
ARC
  5
19D
330
1F
100
AcDbEntity
  8
作図線（太線）
  6
Continuous
 62
     7
100
AcDbCircle
 10
827.0
 20
1051.0
 30
0.0
 40
10.0
100
AcDbArc
 50
180.0
 51
270.0
  0
LINE
  5
19E
330
1F
100
AcDbEntity
  8
作図線（太線）
  6
Continuous
 62
     7
100
AcDbLine
 10
862.0
 20
1011.0
 30
0.0
 11
862.0
 21
1041.0
 31
0.0
  0
LINE
  5
19F
330
1F
100
AcDbEntity
  8
作図線（太線）
  6
Continuous
 62
     7
100
AcDbLine
 10
862.0
 20
1041.0
 30
0.0
 11
827.0
 21
1041.0
 31
0.0
  0
LINE
  5
1A0
330
1F
100
AcDbEntity
  8
作図線（太線）
  6
Continuous
 62
     7
100
AcDbLine
 10
859.5
 20
1039.0
 30
0.0
 11
824.5
 21
1039.0
 31
0.0
  0
LINE
  5
1A1
330
1F
100
AcDbEntity
  8
作図線（太線）
  6
Continuous
 62
     7
100
AcDbLine
 10
824.5
 20
1039.0
 30
0.0
 11
824.5
 21
1041.0
 31
0.0
  0
LINE
  5
1A2
330
1F
100
AcDbEntity
  8
作図線（太線）
  6
Continuous
 62
     7
100
AcDbLine
 10
831.5
 20
1011.0
 30
0.0
 11
831.5
 21
1039.0
 31
0.0
  0
LINE
  5
1A3
330
1F
100
AcDbEntity
  8
作図線（太線）
  6
Continuous
 62
     7
100
AcDbLine
 10
852.5
 20
1011.0
 30
0.0
 11
852.5
 21
1039.0
 31
0.0
  0
LINE
  5
1A4
330
1F
100
AcDbEntity
  8
作図線（太線）
  6
Continuous
 62
     7
100
AcDbLine
 10
859.5
 20
1039.0
 30
0.0
 11
859.5
 21
1041.0
 31
0.0
  0
CIRCLE
  5
1A5
330
1F
100
AcDbEntity
  8
作図線（太線）
  6
Continuous
 62
     7
100
AcDbCircle
 10
627.0
 20
1526.0
 30
0.0
 40
14.7
  0
CIRCLE
  5
1A6
330
1F
100
AcDbEntity
  8
作図線（太線）
  6
Continuous
 62
     7
100
AcDbCircle
 10
627.0
 20
1526.0
 30
0.0
 40
11.679392
  0
LINE
  5
1A7
330
1F
100
AcDbEntity
  8
作図線（太線）
  6
Continuous
 62
     7
100
AcDbLine
 10
632.008538
 20
1534.491685
 30
0.0
 11
619.908538
 21
1520.291685
 31
0.0
  0
LINE
  5
1A8
330
1F
100
AcDbEntity
  8
作図線（太線）
  6
Continuous
 62
     7
100
AcDbLine
 10
635.053119
 20
1531.897359
 30
0.0
 11
622.953119
 21
1517.697359
 31
0.0
  0
LINE
  5
1A9
330
1F
100
AcDbEntity
  8
作図線（太線）
  6
Continuous
 62
     7
100
AcDbLine
 10
619.908538
 20
1520.291685
 30
0.0
 11
622.953119
 21
1517.697359
 31
0.0
  0
LINE
  5
1AA
330
1F
100
AcDbEntity
  8
作図線（太線）
  6
Continuous
 62
     7
100
AcDbLine
 10
632.008538
 20
1534.491685
 30
0.0
 11
635.053119
 21
1531.897359
 31
0.0
  0
CIRCLE
  5
1AB
330
1F
100
AcDbEntity
  8
作図線（太線）
  6
Continuous
 62
     7
100
AcDbCircle
 10
687.0
 20
1526.0
 30
0.0
 40
14.7
  0
CIRCLE
  5
1AC
330
1F
100
AcDbEntity
  8
作図線（太線）
  6
Continuous
 62
     7
100
AcDbCircle
 10
687.0
 20
1526.0
 30
0.0
 40
11.679392
  0
CIRCLE
  5
1AD
330
1F
100
AcDbEntity
  8
作図線（太線）
  6
Continuous
 62
     7
100
AcDbCircle
 10
747.0
 20
1526.0
 30
0.0
 40
14.7
  0
CIRCLE
  5
1AE
330
1F
100
AcDbEntity
  8
作図線（太線）
  6
Continuous
 62
     7
100
AcDbCircle
 10
747.0
 20
1526.0
 30
0.0
 40
11.679392
  0
LINE
  5
1AF
330
1F
100
AcDbEntity
  8
作図線（太線）
  6
Continuous
 62
     7
100
AcDbLine
 10
752.008538
 20
1534.491685
 30
0.0
 11
739.908538
 21
1520.291685
 31
0.0
  0
LINE
  5
1B0
330
1F
100
AcDbEntity
  8
作図線（太線）
  6
Continuous
 62
     7
100
AcDbLine
 10
755.053119
 20
1531.897359
 30
0.0
 11
742.953119
 21
1517.697359
 31
0.0
  0
LINE
  5
1B1
330
1F
100
AcDbEntity
  8
作図線（太線）
  6
Continuous
 62
     7
100
AcDbLine
 10
739.908538
 20
1520.291685
 30
0.0
 11
742.953119
 21
1517.697359
 31
0.0
  0
LINE
  5
1B2
330
1F
100
AcDbEntity
  8
作図線（太線）
  6
Continuous
 62
     7
100
AcDbLine
 10
752.008538
 20
1534.491685
 30
0.0
 11
755.053119
 21
1531.897359
 31
0.0
  0
LINE
  5
1B3
330
1F
100
AcDbEntity
  8
作図線（太線）
  6
Continuous
 62
     7
100
AcDbLine
 10
768.0
 20
1690.0
 30
0.0
 11
768.0
 21
1562.0
 31
0.0
  0
LINE
  5
1B4
330
1F
100
AcDbEntity
  8
作図線（太線）
  6
Continuous
 62
     7
100
AcDbLine
 10
606.0
 20
1690.0
 30
0.0
 11
606.0
 21
1562.0
 31
0.0
  0
LINE
  5
1B5
330
1F
100
AcDbEntity
  8
作図線（太線）
  6
Continuous
 62
     7
100
AcDbLine
 10
606.0
 20
1690.0
 30
0.0
 11
768.0
 21
1690.0
 31
0.0
  0
LINE
  5
1B6
330
1F
100
AcDbEntity
  8
作図線（太線）
  6
Continuous
 62
     7
100
AcDbLine
 10
606.0
 20
1562.0
 30
0.0
 11
768.0
 21
1562.0
 31
0.0
  0
LINE
  5
1B7
330
1F
100
AcDbEntity
  8
作図線（太線）
  6
Continuous
 62
     7
100
AcDbLine
 10
631.0
 20
1668.0
 30
0.0
 11
743.0
 21
1668.0
 31
0.0
  0
LINE
  5
1B8
330
1F
100
AcDbEntity
  8
作図線（太線）
  6
Continuous
 62
     7
100
AcDbLine
 10
631.0
 20
1584.0
 30
0.0
 11
743.0
 21
1584.0
 31
0.0
  0
LINE
  5
1B9
330
1F
100
AcDbEntity
  8
作図線（太線）
  6
Continuous
 62
     7
100
AcDbLine
 10
631.0
 20
1668.0
 30
0.0
 11
631.0
 21
1584.0
 31
0.0
  0
LINE
  5
1BA
330
1F
100
AcDbEntity
  8
作図線（太線）
  6
Continuous
 62
     7
100
AcDbLine
 10
743.0
 20
1668.0
 30
0.0
 11
743.0
 21
1584.0
 31
0.0
  0
LINE
  5
1BB
330
1F
100
AcDbEntity
  8
作図線（太線）
  6
Continuous
 62
     7
100
AcDbLine
 10
1127.0
 20
1144.0
 30
0.0
 11
1127.0
 21
1089.0
 31
0.0
  0
LINE
  5
1BC
330
1F
100
AcDbEntity
  8
作図線（太線）
  6
Continuous
 62
     7
100
AcDbLine
 10
1129.0
 20
1144.0
 30
0.0
 11
1127.0
 21
1144.0
 31
0.0
  0
LINE
  5
1BD
330
1F
100
AcDbEntity
  8
作図線（太線）
  6
Continuous
 62
     7
100
AcDbLine
 10
1129.0
 20
1181.0
 30
0.0
 11
1129.0
 21
1144.0
 31
0.0
  0
ARC
  5
1BE
330
1F
100
AcDbEntity
  8
作図線（太線）
  6
Continuous
 62
     7
100
AcDbCircle
 10
1221.0
 20
1174.521871
 30
0.0
 40
2.0
100
AcDbArc
 50
330.751174
 51
0.0
  0
LINE
  5
1BF
330
1F
100
AcDbEntity
  8
作図線（太線）
  6
Continuous
 62
     7
100
AcDbLine
 10
1222.745012
 20
1173.544664
 30
0.0
 11
1209.0
 21
1149.0
 31
0.0
  0
ARC
  5
1C0
330
1F
100
AcDbEntity
  8
作図線（太線）
  6
Continuous
 62
     7
100
AcDbCircle
 10
1221.0
 20
1174.521871
 30
0.0
 40
2.0
100
AcDbArc
 50
330.751174
 51
0.0
  0
LINE
  5
1C1
330
1F
100
AcDbEntity
  8
作図線（太線）
  6
Continuous
 62
     7
100
AcDbLine
 10
1142.0
 20
1146.0
 30
0.0
 11
1142.0
 21
1181.0
 31
0.0
  0
LINE
  5
1C2
330
1F
100
AcDbEntity
  8
作図線（太線）
  6
Continuous
 62
     7
100
AcDbLine
 10
1196.0
 20
1146.0
 30
0.0
 11
1142.0
 21
1146.0
 31
0.0
  0
ARC
  5
1C3
330
1F
100
AcDbEntity
  8
作図線（太線）
  6
Continuous
 62
     7
100
AcDbCircle
 10
1212.5
 20
1179.5
 30
0.0
 40
1.5
100
AcDbArc
 50
270.0
 51
0.0
  0
LINE
  5
1C4
330
1F
100
AcDbEntity
  8
作図線（太線）
  6
Continuous
 62
     7
100
AcDbLine
 10
1210.5
 20
1178.0
 30
0.0
 11
1212.5
 21
1178.0
 31
0.0
  0
LINE
  5
1C5
330
1F
100
AcDbEntity
  8
作図線（太線）
  6
Continuous
 62
     7
100
AcDbLine
 10
1209.0
 20
1181.0
 30
0.0
 11
1209.0
 21
1179.5
 31
0.0
  0
ARC
  5
1C6
330
1F
100
AcDbEntity
  8
作図線（太線）
  6
Continuous
 62
     7
100
AcDbCircle
 10
1210.5
 20
1179.5
 30
0.0
 40
1.5
100
AcDbArc
 50
180.0
 51
270.0
  0
LINE
  5
1C7
330
1F
100
AcDbEntity
  8
作図線（太線）
  6
Continuous
 62
     7
100
AcDbLine
 10
1156.3
 20
1089.0
 30
0.0
 11
1156.3
 21
1131.0
 31
0.0
  0
LINE
  5
1C8
330
1F
100
AcDbEntity
  8
作図線（太線）
  6
Continuous
 62
     7
100
AcDbLine
 10
1181.7
 20
1089.0
 30
0.0
 11
1181.7
 21
1131.0
 31
0.0
  0
LINE
  5
1C9
330
1F
100
AcDbEntity
  8
作図線（太線）
  6
Continuous
 62
     7
100
AcDbLine
 10
1181.7
 20
1131.0
 30
0.0
 11
1156.3
 21
1131.0
 31
0.0
  0
LINE
  5
1CA
330
1F
100
AcDbEntity
  8
作図線（太線）
  6
Continuous
 62
     7
100
AcDbLine
 10
1156.3
 20
1131.0
 30
0.0
 11
1169.0
 21
1138.332348
 31
0.0
  0
LINE
  5
1CB
330
1F
100
AcDbEntity
  8
作図線（太線）
  6
Continuous
 62
     7
100
AcDbLine
 10
1181.7
 20
1131.0
 30
0.0
 11
1169.0
 21
1138.332348
 31
0.0
  0
LINE
  5
1CC
330
1F
100
AcDbEntity
  8
作図線（太線）
  6
Continuous
 62
     7
100
AcDbLine
 10
1139.0
 20
1129.0
 30
0.0
 11
1139.0
 21
1089.0
 31
0.0
  0
LINE
  5
1CD
330
1F
100
AcDbEntity
  8
作図線（太線）
  6
Continuous
 62
     7
100
AcDbLine
 10
1139.0
 20
1129.0
 30
0.0
 11
1127.0
 21
1129.0
 31
0.0
  0
LINE
  5
1CE
330
1F
100
AcDbEntity
  8
作図線（太線）
  6
Continuous
 62
     7
100
AcDbLine
 10
1156.3
 20
1121.5
 30
0.0
 11
1139.0
 21
1121.5
 31
0.0
  0
LINE
  5
1CF
330
1F
100
AcDbEntity
  8
作図線（太線）
  6
Continuous
 62
     7
100
AcDbLine
 10
1156.3
 20
1096.5
 30
0.0
 11
1139.0
 21
1096.5
 31
0.0
  0
LINE
  5
1D0
330
1F
100
AcDbEntity
  8
作図線（太線）
  6
Continuous
 62
     7
100
AcDbLine
 10
1143.0
 20
1146.0
 30
0.0
 11
1143.0
 21
1168.0
 31
0.0
  0
LINE
  5
1D1
330
1F
100
AcDbEntity
  8
作図線（太線）
  6
Continuous
 62
     7
100
AcDbLine
 10
1195.0
 20
1146.0
 30
0.0
 11
1195.0
 21
1168.0
 31
0.0
  0
ARC
  5
1D2
330
1F
100
AcDbEntity
  8
作図線（太線）
  6
Continuous
 62
     7
100
AcDbCircle
 10
1169.0
 20
1174.0
 30
0.0
 40
20.0
100
AcDbArc
 50
197.457603
 51
342.542397
  0
LINE
  5
1D3
330
1F
100
AcDbEntity
  8
作図線（太線）
  6
Continuous
 62
     7
100
AcDbLine
 10
1150.0
 20
1204.0
 30
0.0
 11
1155.771243
 21
1189.0
 31
0.0
  0
LINE
  5
1D4
330
1F
100
AcDbEntity
  8
作図線（太線）
  6
Continuous
 62
     7
100
AcDbLine
 10
1188.0
 20
1204.0
 30
0.0
 11
1182.228757
 21
1189.0
 31
0.0
  0
LINE
  5
1D5
330
1F
100
AcDbEntity
  8
作図線（太線）
  6
Continuous
 62
     7
100
AcDbLine
 10
1182.228757
 20
1189.0
 30
0.0
 11
1155.771243
 21
1189.0
 31
0.0
  0
ARC
  5
1D6
330
1F
100
AcDbEntity
  8
作図線（太線）
  6
Continuous
 62
     7
100
AcDbCircle
 10
1169.0
 20
1174.0
 30
0.0
 40
20.0
100
AcDbArc
 50
131.409622
 51
48.590378
  0
LINE
  5
1D7
330
1F
100
AcDbEntity
  8
作図線（太線）
  6
Continuous
 62
     7
100
AcDbLine
 10
1188.0
 20
1204.0
 30
0.0
 11
1150.0
 21
1204.0
 31
0.0
  0
LINE
  5
1D8
330
1F
100
AcDbEntity
  8
作図線（太線）
  6
Continuous
 62
     7
100
AcDbLine
 10
1149.921216
 20
1168.0
 30
0.0
 11
1143.0
 21
1168.0
 31
0.0
  0
LINE
  5
1D9
330
1F
100
AcDbEntity
  8
作図線（太線）
  6
Continuous
 62
     7
100
AcDbLine
 10
1195.0
 20
1168.0
 30
0.0
 11
1188.078784
 21
1168.0
 31
0.0
  0
LINE
  5
1DA
330
1F
100
AcDbEntity
  8
作図線（太線）
  6
Continuous
 62
     7
100
AcDbLine
 10
1149.100251
 20
1176.0
 30
0.0
 11
1142.0
 21
1176.0
 31
0.0
  0
LINE
  5
1DB
330
1F
100
AcDbEntity
  8
作図線（太線）
  6
Continuous
 62
     7
100
AcDbLine
 10
1196.0
 20
1176.0
 30
0.0
 11
1188.899749
 21
1176.0
 31
0.0
  0
LINE
  5
1DC
330
1F
100
AcDbEntity
  8
作図線（太線）
  6
Continuous
 62
     7
100
AcDbLine
 10
1142.0
 20
1181.0
 30
0.0
 11
1142.0
 21
1181.2
 31
0.0
  0
LINE
  5
1DD
330
1F
100
AcDbEntity
  8
作図線（太線）
  6
Continuous
 62
     7
100
AcDbLine
 10
1142.0
 20
1181.2
 30
0.0
 11
1129.5
 21
1181.2
 31
0.0
  0
LINE
  5
1DE
330
1F
100
AcDbEntity
  8
作図線（太線）
  6
Continuous
 62
     7
100
AcDbLine
 10
1129.5
 20
1181.2
 30
0.0
 11
1129.5
 21
1195.0
 31
0.0
  0
LINE
  5
1DF
330
1F
100
AcDbEntity
  8
作図線（太線）
  6
Continuous
 62
     7
100
AcDbLine
 10
1208.5
 20
1181.2
 30
0.0
 11
1208.5
 21
1195.0
 31
0.0
  0
LINE
  5
1E0
330
1F
100
AcDbEntity
  8
作図線（太線）
  6
Continuous
 62
     7
100
AcDbLine
 10
1196.0
 20
1181.2
 30
0.0
 11
1208.5
 21
1181.2
 31
0.0
  0
LINE
  5
1E1
330
1F
100
AcDbEntity
  8
作図線（太線）
  6
Continuous
 62
     7
100
AcDbLine
 10
1196.0
 20
1146.0
 30
0.0
 11
1196.0
 21
1181.2
 31
0.0
  0
LINE
  5
1E2
330
1F
100
AcDbEntity
  8
作図線（太線）
  6
Continuous
 62
     7
100
AcDbLine
 10
1209.0
 20
1181.0
 30
0.0
 11
1196.0
 21
1181.0
 31
0.0
  0
LINE
  5
1E3
330
1F
100
AcDbEntity
  8
作図線（太線）
  6
Continuous
 62
     7
100
AcDbLine
 10
1142.0
 20
1181.0
 30
0.0
 11
1129.0
 21
1181.0
 31
0.0
  0
LINE
  5
1E4
330
1F
100
AcDbEntity
  8
作図線（太線）
  6
Continuous
 62
     7
100
AcDbLine
 10
1153.462746
 20
1195.0
 30
0.0
 11
1129.5
 21
1195.0
 31
0.0
  0
LINE
  5
1E5
330
1F
100
AcDbEntity
  8
作図線（太線）
  6
Continuous
 62
     7
100
AcDbLine
 10
1184.537254
 20
1195.0
 30
0.0
 11
1208.5
 21
1195.0
 31
0.0
  0
LINE
  5
1E6
330
1F
100
AcDbEntity
  8
作図線（太線）
  6
Continuous
 62
     7
100
AcDbLine
 10
1184.0
 20
1187.228757
 30
0.0
 11
1189.441483
 21
1195.0
 31
0.0
  0
LINE
  5
1E7
330
1F
100
AcDbEntity
  8
作図線（太線）
  6
Continuous
 62
     7
100
AcDbLine
 10
1154.0
 20
1187.228757
 30
0.0
 11
1148.558517
 21
1195.0
 31
0.0
  0
LINE
  5
1E8
330
1F
100
AcDbEntity
  8
作図線（太線）
  6
Continuous
 62
     7
100
AcDbLine
 10
1127.0
 20
1089.0
 30
0.0
 11
1209.0
 21
1089.0
 31
0.0
  0
LINE
  5
1E9
330
1F
100
AcDbEntity
  8
作図線（太線）
  6
Continuous
 62
     7
100
AcDbLine
 10
1209.0
 20
1089.0
 30
0.0
 11
1209.0
 21
1149.0
 31
0.0
  0
LINE
  5
1EA
330
1F
100
AcDbEntity
  8
作図線（太線）
  6
Continuous
 62
     7
100
AcDbLine
 10
1118.0
 20
1173.4
 30
0.0
 11
1120.7
 21
1174.3
 31
0.0
  0
LINE
  5
1EB
330
1F
100
AcDbEntity
  8
作図線（太線）
  6
Continuous
 62
     7
100
AcDbLine
 10
1120.7
 20
1174.3
 30
0.0
 11
1122.5
 21
1173.4
 31
0.0
  0
LINE
  5
1EC
330
1F
100
AcDbEntity
  8
作図線（太線）
  6
Continuous
 62
     7
100
AcDbLine
 10
1125.9
 20
1176.773503
 30
0.0
 11
1129.0
 21
1176.773503
 31
0.0
  0
ARC
  5
1ED
330
1F
100
AcDbEntity
  8
作図線（太線）
  6
Continuous
 62
     7
100
AcDbCircle
 10
1122.122699
 20
1177.180368
 30
0.0
 40
3.79915
100
AcDbArc
 50
275.699546
 51
353.852184
  0
LINE
  5
1EE
330
1F
100
AcDbEntity
  8
作図線（太線）
  6
Continuous
 62
     7
100
AcDbLine
 10
1118.0
 20
1168.6
 30
0.0
 11
1120.7
 21
1167.7
 31
0.0
  0
LINE
  5
1EF
330
1F
100
AcDbEntity
  8
作図線（太線）
  6
Continuous
 62
     7
100
AcDbLine
 10
1120.7
 20
1167.7
 30
0.0
 11
1122.5
 21
1168.6
 31
0.0
  0
ARC
  5
1F0
330
1F
100
AcDbEntity
  8
作図線（太線）
  6
Continuous
 62
     7
100
AcDbCircle
 10
1122.122699
 20
1164.819632
 30
0.0
 40
3.79915
100
AcDbArc
 50
6.147816
 51
84.300454
  0
LINE
  5
1F1
330
1F
100
AcDbEntity
  8
作図線（太線）
  6
Continuous
 62
     7
100
AcDbLine
 10
1125.9
 20
1165.226497
 30
0.0
 11
1129.0
 21
1165.226497
 31
0.0
  0
LINE
  5
1F2
330
1F
100
AcDbEntity
  8
作図線（太線）
  6
Continuous
 62
     7
100
AcDbLine
 10
1122.5
 20
1173.4
 30
0.0
 11
1122.5
 21
1168.6
 31
0.0
  0
LINE
  5
1F3
330
1F
100
AcDbEntity
  8
作図線（太線）
  6
Continuous
 62
     7
100
AcDbLine
 10
1120.7
 20
1174.3
 30
0.0
 11
1120.7
 21
1167.7
 31
0.0
  0
LINE
  5
1F4
330
1F
100
AcDbEntity
  8
作図線（太線）
  6
Continuous
 62
     7
100
AcDbLine
 10
1118.0
 20
1173.4
 30
0.0
 11
1118.0
 21
1168.6
 31
0.0
  0
LINE
  5
1F5
330
1F
100
AcDbEntity
  8
作図線（太線）
  6
Continuous
 62
     7
100
AcDbLine
 10
1125.9
 20
1176.773503
 30
0.0
 11
1125.9
 21
1165.226497
 31
0.0
  0
LINE
  5
1F6
330
1F
100
AcDbEntity
  8
作図線（太線）
  6
Continuous
 62
     7
100
AcDbLine
 10
1129.0
 20
1176.0
 30
0.0
 11
1138.0
 21
1175.52833
 31
0.0
  0
LINE
  5
1F7
330
1F
100
AcDbEntity
  8
作図線（太線）
  6
Continuous
 62
     7
100
AcDbLine
 10
1129.0
 20
1166.0
 30
0.0
 11
1138.0
 21
1166.47167
 31
0.0
  0
LINE
  5
1F8
330
1F
100
AcDbEntity
  8
作図線（太線）
  6
Continuous
 62
     7
100
AcDbLine
 10
1138.0
 20
1175.52833
 30
0.0
 11
1138.0
 21
1166.47
 31
0.0
  0
LINE
  5
1F9
330
1F
100
AcDbEntity
  8
作図線（太線）
  6
Continuous
 62
     7
100
AcDbLine
 10
1149.100251
 20
1175.25
 30
0.0
 11
1149.039101
 21
1175.25
 31
0.0
  0
LINE
  5
1FA
330
1F
100
AcDbEntity
  8
作図線（太線）
  6
Continuous
 62
     7
100
AcDbLine
 10
1142.0
 20
1175.25
 30
0.0
 11
1138.0
 21
1175.25
 31
0.0
  0
LINE
  5
1FB
330
1F
100
AcDbEntity
  8
作図線（太線）
  6
Continuous
 62
     7
100
AcDbLine
 10
1142.0
 20
1166.75
 30
0.0
 11
1138.0
 21
1166.75
 31
0.0
  0
LINE
  5
1FC
330
1F
100
AcDbEntity
  8
作図線（太線）
  6
Continuous
 62
     7
100
AcDbLine
 10
1127.0
 20
1093.0
 30
0.0
 11
1104.0
 21
1093.0
 31
0.0
  0
LINE
  5
1FD
330
1F
100
AcDbEntity
  8
作図線（太線）
  6
Continuous
 62
     7
100
AcDbLine
 10
1150.0
 20
1204.0
 30
0.0
 11
1150.0
 21
1212.127774
 31
0.0
  0
LINE
  5
1FE
330
1F
100
AcDbEntity
  8
作図線（太線）
  6
Continuous
 62
     7
100
AcDbLine
 10
1188.0
 20
1204.0
 30
0.0
 11
1188.0
 21
1212.160624
 31
0.0
  0
LINE
  5
1FF
330
1F
100
AcDbEntity
  8
作図線（太線）
  6
Continuous
 62
     7
100
AcDbLine
 10
1109.0
 20
1093.0
 30
0.0
 11
1109.0
 21
1220.953222
 31
0.0
  0
LINE
  5
200
330
1F
100
AcDbEntity
  8
作図線（太線）
  6
Continuous
 62
     7
100
AcDbLine
 10
1214.0
 20
1179.5
 30
0.0
 11
1214.0
 21
1207.5
 31
0.0
  0
LINE
  5
201
330
1F
100
AcDbEntity
  8
作図線（太線）
  6
Continuous
 62
     7
100
AcDbLine
 10
1223.0
 20
1174.521871
 30
0.0
 11
1223.0
 21
1202.110323
 31
0.0
  0
LINE
  5
202
330
1F
100
AcDbEntity
  8
作図線（太線）
  6
Continuous
 62
     7
100
AcDbLine
 10
1237.0
 20
1186.912256
 30
0.0
 11
1237.0
 21
1096.0
 31
0.0
  0
LINE
  5
203
330
1F
100
AcDbEntity
  8
作図線（太線）
  6
Continuous
 62
     7
100
AcDbLine
 10
1104.0
 20
1093.0
 30
0.0
 11
1104.0
 21
1463.0
 31
0.0
  0
LINE
  5
204
330
1F
100
AcDbEntity
  8
作図線（太線）
  6
Continuous
 62
     7
100
AcDbLine
 10
1169.0
 20
1211.950919
 30
0.0
 11
1169.0
 21
1463.0
 31
0.0
  0
LINE
  5
205
330
1F
100
AcDbEntity
  8
作図線（太線）
  6
Continuous
 62
     7
100
AcDbLine
 10
1565.0
 20
1466.0
 30
0.0
 11
1810.6
 21
1466.0
 31
0.0
  0
LINE
  5
206
330
1F
100
AcDbEntity
  8
作図線（太線）
  6
Continuous
 62
     7
100
AcDbLine
 10
1104.0
 20
1486.0
 30
0.0
 11
1104.0
 21
1466.0
 31
0.0
  0
LINE
  5
207
330
1F
100
AcDbEntity
  8
作図線（太線）
  6
Continuous
 62
     7
100
AcDbLine
 10
1104.0
 20
1746.0
 30
0.0
 11
1104.0
 21
1736.0
 31
0.0
  0
LINE
  5
208
330
1F
100
AcDbEntity
  8
作図線（太線）
  6
Continuous
 62
     7
100
AcDbLine
 10
1104.0
 20
1721.0
 30
0.0
 11
1104.0
 21
1486.0
 31
0.0
  0
LINE
  5
209
330
1F
100
AcDbEntity
  8
作図線（太線）
  6
Continuous
 62
     7
100
AcDbLine
 10
1810.6
 20
1721.0
 30
0.0
 11
1810.6
 21
1466.0
 31
0.0
  0
ARC
  5
20A
330
1F
100
AcDbEntity
  8
作図線（太線）
  6
Continuous
 62
     7
100
AcDbCircle
 10
1770.6
 20
1731.0
 30
0.0
 40
40.0
100
AcDbArc
 50
0.0
 51
90.0
  0
LINE
  5
20B
330
1F
100
AcDbEntity
  8
作図線（太線）
  6
Continuous
 62
     7
100
AcDbLine
 10
1810.6
 20
1731.0
 30
0.0
 11
1810.6
 21
1721.0
 31
0.0
  0
LINE
  5
20C
330
1F
100
AcDbEntity
  8
作図線（太線）
  6
Continuous
 62
     7
100
AcDbLine
 10
1104.0
 20
1721.0
 30
0.0
 11
1810.6
 21
1721.0
 31
0.0
  0
LINE
  5
20D
330
1F
100
AcDbEntity
  8
作図線（太線）
  6
Continuous
 62
     7
100
AcDbLine
 10
1144.0
 20
1771.0
 30
0.0
 11
1770.6
 21
1771.0
 31
0.0
  0
ARC
  5
20E
330
1F
100
AcDbEntity
  8
作図線（太線）
  6
Continuous
 62
     7
100
AcDbCircle
 10
1144.0
 20
1731.0
 30
0.0
 40
40.0
100
AcDbArc
 50
90.0
 51
180.0
  0
LINE
  5
20F
330
1F
100
AcDbEntity
  8
作図線（太線）
  6
Continuous
 62
     7
100
AcDbLine
 10
1104.0
 20
1721.0
 30
0.0
 11
1104.0
 21
1731.0
 31
0.0
  0
LINE
  5
210
330
1F
100
AcDbEntity
  8
作図線（太線）
  6
Continuous
 62
     7
100
AcDbLine
 10
1100.0
 20
1554.5
 30
0.0
 11
1104.0
 21
1554.5
 31
0.0
  0
LINE
  5
211
330
1F
100
AcDbEntity
  8
作図線（太線）
  6
Continuous
 62
     7
100
AcDbLine
 10
1100.0
 20
1682.5
 30
0.0
 11
1104.0
 21
1682.5
 31
0.0
  0
LINE
  5
212
330
1F
100
AcDbEntity
  8
作図線（太線）
  6
Continuous
 62
     7
100
AcDbLine
 10
1100.0
 20
1554.5
 30
0.0
 11
1100.0
 21
1682.5
 31
0.0
  0
LINE
  5
213
330
1F
100
AcDbEntity
  8
作図線（太線）
  6
Continuous
 62
     7
100
AcDbLine
 10
1100.0
 20
1511.5
 30
0.0
 11
1100.0
 21
1540.5
 31
0.0
  0
LINE
  5
214
330
1F
100
AcDbEntity
  8
作図線（太線）
  6
Continuous
 62
     7
100
AcDbLine
 10
1088.2
 20
1546.0
 30
0.0
 11
1088.2
 21
1506.0
 31
0.0
  0
LINE
  5
215
330
1F
100
AcDbEntity
  8
作図線（太線）
  6
Continuous
 62
     7
100
AcDbLine
 10
1091.0
 20
1526.0
 30
0.0
 11
1091.0
 21
1511.5
 31
0.0
  0
LINE
  5
216
330
1F
100
AcDbEntity
  8
作図線（太線）
  6
Continuous
 62
     7
100
AcDbLine
 10
1080.8
 20
1526.0
 30
0.0
 11
1080.8
 21
1518.494772
 31
0.0
  0
LINE
  5
217
330
1F
100
AcDbEntity
  8
作図線（太線）
  6
Continuous
 62
     7
100
AcDbLine
 10
1088.2
 20
1514.408315
 30
0.0
 11
1091.0
 21
1514.408315
 31
0.0
  0
LINE
  5
218
330
1F
100
AcDbEntity
  8
作図線（太線）
  6
Continuous
 62
     7
100
AcDbLine
 10
1091.0
 20
1511.5
 30
0.0
 11
1104.0
 21
1511.5
 31
0.0
  0
LINE
  5
219
330
1F
100
AcDbEntity
  8
作図線（太線）
  6
Continuous
 62
     7
100
AcDbLine
 10
1086.269906
 20
1506.0
 30
0.0
 11
1088.2
 21
1506.0
 31
0.0
  0
ARC
  5
21A
330
1F
100
AcDbEntity
  8
作図線（太線）
  6
Continuous
 62
     7
100
AcDbCircle
 10
1090.8
 20
1518.494772
 30
0.0
 40
10.0
100
AcDbArc
 50
180.0
 51
196.205999
  0
LINE
  5
21B
330
1F
100
AcDbEntity
  8
作図線（太線）
  6
Continuous
 62
     7
100
AcDbLine
 10
1081.197355
 20
1515.703855
 30
0.0
 11
1083.389112
 21
1508.162725
 31
0.0
  0
ARC
  5
21C
330
1F
100
AcDbEntity
  8
作図線（太線）
  6
Continuous
 62
     7
100
AcDbCircle
 10
1086.269906
 20
1509.0
 30
0.0
 40
3.0
100
AcDbArc
 50
196.205999
 51
270.0
  0
LINE
  5
21D
330
1F
100
AcDbEntity
  8
作図線（太線）
  6
Continuous
 62
     7
100
AcDbLine
 10
1091.0
 20
1526.0
 30
0.0
 11
1091.0
 21
1540.5
 31
0.0
  0
LINE
  5
21E
330
1F
100
AcDbEntity
  8
作図線（太線）
  6
Continuous
 62
     7
100
AcDbLine
 10
1080.8
 20
1526.0
 30
0.0
 11
1080.8
 21
1533.505228
 31
0.0
  0
LINE
  5
21F
330
1F
100
AcDbEntity
  8
作図線（太線）
  6
Continuous
 62
     7
100
AcDbLine
 10
1088.2
 20
1537.591685
 30
0.0
 11
1091.0
 21
1537.591685
 31
0.0
  0
LINE
  5
220
330
1F
100
AcDbEntity
  8
作図線（太線）
  6
Continuous
 62
     7
100
AcDbLine
 10
1091.0
 20
1540.5
 30
0.0
 11
1104.0
 21
1540.5
 31
0.0
  0
LINE
  5
221
330
1F
100
AcDbEntity
  8
作図線（太線）
  6
Continuous
 62
     7
100
AcDbLine
 10
1086.269906
 20
1546.0
 30
0.0
 11
1088.2
 21
1546.0
 31
0.0
  0
ARC
  5
222
330
1F
100
AcDbEntity
  8
作図線（太線）
  6
Continuous
 62
     7
100
AcDbCircle
 10
1090.8
 20
1533.505228
 30
0.0
 40
10.0
100
AcDbArc
 50
163.794001
 51
180.0
  0
LINE
  5
223
330
1F
100
AcDbEntity
  8
作図線（太線）
  6
Continuous
 62
     7
100
AcDbLine
 10
1081.197355
 20
1536.296145
 30
0.0
 11
1083.389112
 21
1543.837275
 31
0.0
  0
ARC
  5
224
330
1F
100
AcDbEntity
  8
作図線（太線）
  6
Continuous
 62
     7
100
AcDbCircle
 10
1086.269906
 20
1543.0
 30
0.0
 40
3.0
100
AcDbArc
 50
90.0
 51
163.794001
  0
LINE
  5
225
330
1F
100
AcDbEntity
  8
作図線（太線）
  6
Continuous
 62
     7
100
AcDbLine
 10
1565.0
 20
1466.0
 30
0.0
 11
1104.0
 21
1466.0
 31
0.0
  0
LINE
  5
226
330
1F
100
AcDbEntity
  8
作図線（太線）
  6
Continuous
 62
     7
100
AcDbLine
 10
1584.0
 20
1463.0
 30
0.0
 11
1104.0
 21
1463.0
 31
0.0
  0
LINE
  5
227
330
1F
100
AcDbEntity
  8
作図線（太線）
  6
Continuous
 62
     7
100
AcDbLine
 10
1584.0
 20
1295.8
 30
0.0
 11
1584.0
 21
1463.0
 31
0.0
  0
LINE
  5
228
330
1F
100
AcDbEntity
  8
作図線（太線）
  6
Continuous
 62
     7
100
AcDbLine
 10
1477.8
 20
1429.0
 30
0.0
 11
1477.8
 21
1329.0
 31
0.0
  0
LINE
  5
229
330
1F
100
AcDbEntity
  8
作図線（太線）
  6
Continuous
 62
     7
100
AcDbLine
 10
1539.0
 20
1429.0
 30
0.0
 11
1539.0
 21
1329.0
 31
0.0
  0
LINE
  5
22A
330
1F
100
AcDbEntity
  8
作図線（太線）
  6
Continuous
 62
     7
100
AcDbLine
 10
1539.0
 20
1429.0
 30
0.0
 11
1477.8
 21
1429.0
 31
0.0
  0
LINE
  5
22B
330
1F
100
AcDbEntity
  8
作図線（太線）
  6
Continuous
 62
     7
100
AcDbLine
 10
1539.0
 20
1329.0
 30
0.0
 11
1477.8
 21
1329.0
 31
0.0
  0
LINE
  5
22C
330
1F
100
AcDbEntity
  8
作図線（太線）
  6
Continuous
 62
     7
100
AcDbLine
 10
1590.0
 20
1295.8
 30
0.0
 11
1590.0
 21
1096.0
 31
0.0
  0
LINE
  5
22D
330
1F
100
AcDbEntity
  8
作図線（太線）
  6
Continuous
 62
     7
100
AcDbLine
 10
1590.0
 20
1096.0
 30
0.0
 11
1810.6
 21
1096.0
 31
0.0
  0
ARC
  5
22E
330
1F
100
AcDbEntity
  8
作図線（太線）
  6
Continuous
 62
     7
100
AcDbCircle
 10
1589.0
 20
1091.0
 30
0.0
 40
5.0
100
AcDbArc
 50
90.0
 51
180.0
  0
LINE
  5
22F
330
1F
100
AcDbEntity
  8
作図線（太線）
  6
Continuous
 62
     7
100
AcDbLine
 10
1590.0
 20
1041.0
 30
0.0
 11
1590.0
 21
1011.0
 31
0.0
  0
ARC
  5
230
330
1F
100
AcDbEntity
  8
作図線（太線）
  6
Continuous
 62
     7
100
AcDbCircle
 10
1589.0
 20
1046.0
 30
0.0
 40
5.0
100
AcDbArc
 50
180.0
 51
270.0
  0
LINE
  5
231
330
1F
100
AcDbEntity
  8
作図線（太線）
  6
Continuous
 62
     7
100
AcDbLine
 10
1584.0
 20
1091.0
 30
0.0
 11
1584.0
 21
1046.0
 31
0.0
  0
LINE
  5
232
330
1F
100
AcDbEntity
  8
作図線（太線）
  6
Continuous
 62
     7
100
AcDbLine
 10
1584.0
 20
1091.0
 30
0.0
 11
1584.0
 21
1046.0
 31
0.0
  0
LINE
  5
233
330
1F
100
AcDbEntity
  8
作図線（太線）
  6
Continuous
 62
     7
100
AcDbLine
 10
1590.0
 20
1096.0
 30
0.0
 11
1589.0
 21
1096.0
 31
0.0
  0
LINE
  5
234
330
1F
100
AcDbEntity
  8
作図線（太線）
  6
Continuous
 62
     7
100
AcDbLine
 10
1590.0
 20
1011.0
 30
0.0
 11
1284.0
 21
1011.0
 31
0.0
  0
LINE
  5
235
330
1F
100
AcDbEntity
  8
作図線（太線）
  6
Continuous
 62
     7
100
AcDbLine
 10
1584.0
 20
1041.0
 30
0.0
 11
1523.0
 21
1041.0
 31
0.0
  0
LINE
  5
236
330
1F
100
AcDbEntity
  8
作図線（太線）
  6
Continuous
 62
     7
100
AcDbLine
 10
1590.0
 20
1041.0
 30
0.0
 11
1284.0
 21
1041.0
 31
0.0
  0
LINE
  5
237
330
1F
100
AcDbEntity
  8
作図線（太線）
  6
Continuous
 62
     7
100
AcDbLine
 10
1284.0
 20
877.0
 30
0.0
 11
1284.0
 21
527.0
 31
0.0
  0
CIRCLE
  5
238
330
1F
100
AcDbEntity
  8
作図線（太線）
  6
Continuous
 62
     7
100
AcDbCircle
 10
1314.0
 20
762.0
 30
0.0
 40
10.5
  0
CIRCLE
  5
239
330
1F
100
AcDbEntity
  8
作図線（太線）
  6
Continuous
 62
     7
100
AcDbCircle
 10
1314.0
 20
857.0
 30
0.0
 40
10.5
  0
CIRCLE
  5
23A
330
1F
100
AcDbEntity
  8
作図線（太線）
  6
Continuous
 62
     7
100
AcDbCircle
 10
1434.0
 20
857.0
 30
0.0
 40
10.5
  0
CIRCLE
  5
23B
330
1F
100
AcDbEntity
  8
作図線（太線）
  6
Continuous
 62
     7
100
AcDbCircle
 10
1554.0
 20
857.0
 30
0.0
 40
10.5
  0
CIRCLE
  5
23C
330
1F
100
AcDbEntity
  8
作図線（太線）
  6
Continuous
 62
     7
100
AcDbCircle
 10
1374.0
 20
702.0
 30
0.0
 40
10.5
  0
CIRCLE
  5
23D
330
1F
100
AcDbEntity
  8
作図線（太線）
  6
Continuous
 62
     7
100
AcDbCircle
 10
1314.0
 20
642.0
 30
0.0
 40
10.5
  0
LINE
  5
23E
330
1F
100
AcDbEntity
  8
作図線（太線）
  6
Continuous
 62
     7
100
AcDbLine
 10
1284.0
 20
527.0
 30
0.0
 11
1584.0
 21
527.0
 31
0.0
  0
CIRCLE
  5
23F
330
1F
100
AcDbEntity
  8
作図線（太線）
  6
Continuous
 62
     7
100
AcDbCircle
 10
1314.0
 20
547.0
 30
0.0
 40
10.5
  0
CIRCLE
  5
240
330
1F
100
AcDbEntity
  8
作図線（太線）
  6
Continuous
 62
     7
100
AcDbCircle
 10
1434.0
 20
547.0
 30
0.0
 40
10.5
  0
CIRCLE
  5
241
330
1F
100
AcDbEntity
  8
作図線（太線）
  6
Continuous
 62
     7
100
AcDbCircle
 10
1554.0
 20
547.0
 30
0.0
 40
10.5
  0
LINE
  5
242
330
1F
100
AcDbEntity
  8
作図線（太線）
  6
Continuous
 62
     7
100
AcDbLine
 10
1590.0
 20
877.0
 30
0.0
 11
1590.0
 21
527.0
 31
0.0
  0
LINE
  5
243
330
1F
100
AcDbEntity
  8
作図線（太線）
  6
Continuous
 62
     7
100
AcDbLine
 10
1284.0
 20
877.0
 30
0.0
 11
1590.0
 21
877.0
 31
0.0
  0
LINE
  5
244
330
1F
100
AcDbEntity
  8
作図線（太線）
  6
Continuous
 62
     7
100
AcDbLine
 10
1284.0
 20
527.0
 30
0.0
 11
1590.0
 21
527.0
 31
0.0
  0
LINE
  5
245
330
1F
100
AcDbEntity
  8
作図線（太線）
  6
Continuous
 62
     7
100
AcDbLine
 10
2328.0
 20
1466.0
 30
0.0
 11
2328.0
 21
1463.0
 31
0.0
  0
LINE
  5
246
330
1F
100
AcDbEntity
  8
作図線（太線）
  6
Continuous
 62
     7
100
AcDbLine
 10
2075.0
 20
1096.0
 30
0.0
 11
2331.0
 21
1096.0
 31
0.0
  0
LINE
  5
247
330
1F
100
AcDbEntity
  8
作図線（太線）
  6
Continuous
 62
     7
100
AcDbLine
 10
2333.0
 20
1466.0
 30
0.0
 11
2333.0
 21
1731.0
 31
0.0
  0
ARC
  5
248
330
1F
100
AcDbEntity
  8
作図線（太線）
  6
Continuous
 62
     7
100
AcDbCircle
 10
2293.0
 20
1731.0
 30
0.0
 40
40.0
100
AcDbArc
 50
0.0
 51
90.0
  0
LINE
  5
249
330
1F
100
AcDbEntity
  8
作図線（太線）
  6
Continuous
 62
     7
100
AcDbLine
 10
2113.0
 20
1771.0
 30
0.0
 11
2293.0
 21
1771.0
 31
0.0
  0
LINE
  5
24A
330
1F
100
AcDbEntity
  8
作図線（太線）
  6
Continuous
 62
     7
100
AcDbLine
 10
2073.0
 20
1466.0
 30
0.0
 11
2073.0
 21
1731.0
 31
0.0
  0
ARC
  5
24B
330
1F
100
AcDbEntity
  8
作図線（太線）
  6
Continuous
 62
     7
100
AcDbCircle
 10
2113.0
 20
1731.0
 30
0.0
 40
40.0
100
AcDbArc
 50
90.0
 51
180.0
  0
LINE
  5
24C
330
1F
100
AcDbEntity
  8
作図線（太線）
  6
Continuous
 62
     7
100
AcDbLine
 10
2073.0
 20
1721.0
 30
0.0
 11
2333.0
 21
1721.0
 31
0.0
  0
LINE
  5
24D
330
1F
100
AcDbEntity
  8
作図線（太線）
  6
Continuous
 62
     7
100
AcDbLine
 10
2378.0
 20
1011.0
 30
0.0
 11
2378.0
 21
1041.0
 31
0.0
  0
LINE
  5
24E
330
1F
100
AcDbEntity
  8
作図線（太線）
  6
Continuous
 62
     7
100
AcDbLine
 10
2028.0
 20
1011.0
 30
0.0
 11
2376.0
 21
1011.0
 31
0.0
  0
LINE
  5
24F
330
1F
100
AcDbEntity
  8
作図線（太線）
  6
Continuous
 62
     7
100
AcDbLine
 10
2028.0
 20
1011.0
 30
0.0
 11
2028.0
 21
1041.0
 31
0.0
  0
ARC
  5
250
330
1F
100
AcDbEntity
  8
作図線（太線）
  6
Continuous
 62
     7
100
AcDbCircle
 10
2063.0
 20
1051.0
 30
0.0
 40
10.0
100
AcDbArc
 50
270.0
 51
0.0
  0
ARC
  5
251
330
1F
100
AcDbEntity
  8
作図線（太線）
  6
Continuous
 62
     7
100
AcDbCircle
 10
2128.0
 20
1051.0
 30
0.0
 40
10.0
100
AcDbArc
 50
180.0
 51
270.0
  0
ARC
  5
252
330
1F
100
AcDbEntity
  8
作図線（太線）
  6
Continuous
 62
     7
100
AcDbCircle
 10
2278.0
 20
1051.0
 30
0.0
 40
10.0
100
AcDbArc
 50
270.0
 51
0.0
  0
ARC
  5
253
330
1F
100
AcDbEntity
  8
作図線（太線）
  6
Continuous
 62
     7
100
AcDbCircle
 10
2343.0
 20
1051.0
 30
0.0
 40
10.0
100
AcDbArc
 50
180.0
 51
270.0
  0
LINE
  5
254
330
1F
100
AcDbEntity
  8
作図線（太線）
  6
Continuous
 62
     7
100
AcDbLine
 10
2063.0
 20
1041.0
 30
0.0
 11
2028.0
 21
1041.0
 31
0.0
  0
LINE
  5
255
330
1F
100
AcDbEntity
  8
作図線（太線）
  6
Continuous
 62
     7
100
AcDbLine
 10
2378.0
 20
1041.0
 30
0.0
 11
2343.0
 21
1041.0
 31
0.0
  0
LINE
  5
256
330
1F
100
AcDbEntity
  8
作図線（太線）
  6
Continuous
 62
     7
100
AcDbLine
 10
2278.0
 20
1041.0
 30
0.0
 11
2128.0
 21
1041.0
 31
0.0
  0
LINE
  5
257
330
1F
100
AcDbEntity
  8
作図線（太線）
  6
Continuous
 62
     7
100
AcDbLine
 10
2123.0
 20
1096.0
 30
0.0
 11
2283.0
 21
1096.0
 31
0.0
  0
LINE
  5
258
330
1F
100
AcDbEntity
  8
作図線（太線）
  6
Continuous
 62
     7
100
AcDbLine
 10
2118.0
 20
1051.0
 30
0.0
 11
2118.0
 21
1096.0
 31
0.0
  0
LINE
  5
259
330
1F
100
AcDbEntity
  8
作図線（太線）
  6
Continuous
 62
     7
100
AcDbLine
 10
2288.0
 20
1051.0
 30
0.0
 11
2288.0
 21
1096.0
 31
0.0
  0
LINE
  5
25A
330
1F
100
AcDbEntity
  8
作図線（太線）
  6
Continuous
 62
     7
100
AcDbLine
 10
2073.0
 20
1466.0
 30
0.0
 11
2333.0
 21
1466.0
 31
0.0
  0
LINE
  5
25B
330
1F
100
AcDbEntity
  8
作図線（太線）
  6
Continuous
 62
     7
100
AcDbLine
 10
2073.0
 20
1463.0
 30
0.0
 11
2073.0
 21
1051.0
 31
0.0
  0
LINE
  5
25C
330
1F
100
AcDbEntity
  8
作図線（太線）
  6
Continuous
 62
     7
100
AcDbLine
 10
2333.0
 20
1463.0
 30
0.0
 11
2333.0
 21
1051.0
 31
0.0
  0
LINE
  5
25D
330
1F
100
AcDbEntity
  8
作図線（太線）
  6
Continuous
 62
     7
100
AcDbLine
 10
2263.0
 20
1463.0
 30
0.0
 11
2333.0
 21
1463.0
 31
0.0
  0
LINE
  5
25E
330
1F
100
AcDbEntity
  8
作図線（太線）
  6
Continuous
 62
     7
100
AcDbLine
 10
2078.0
 20
1466.0
 30
0.0
 11
2078.0
 21
1463.0
 31
0.0
  0
LINE
  5
25F
330
1F
100
AcDbEntity
  8
作図線（太線）
  6
Continuous
 62
     7
100
AcDbLine
 10
2073.0
 20
1463.0
 30
0.0
 11
2263.0
 21
1463.0
 31
0.0
  0
LINE
  5
260
330
1F
100
AcDbEntity
  8
作図線（太線）
  6
Continuous
 62
     7
100
AcDbLine
 10
2143.0
 20
1463.0
 30
0.0
 11
2143.0
 21
1466.0
 31
0.0
  0
LINE
  5
261
330
1F
100
AcDbEntity
  8
作図線（太線）
  6
Continuous
 62
     7
100
AcDbLine
 10
2263.0
 20
1463.0
 30
0.0
 11
2263.0
 21
1466.0
 31
0.0
  0
LINE
  5
262
330
1F
100
AcDbEntity
  8
作図線（太線）
  6
Continuous
 62
     7
100
AcDbLine
 10
557.0
 20
1413.0
 30
0.0
 11
557.0
 21
1458.0
 31
0.0
  0
ARC
  5
263
330
1F
100
AcDbEntity
  8
作図線（太線）
  6
Continuous
 62
     7
100
AcDbCircle
 10
1710.6
 20
1656.0
 30
0.0
 40
52.0
100
AcDbArc
 50
121.15518
 51
148.84482
  0
ARC
  5
264
330
1F
100
AcDbEntity
  8
作図線（太線）
  6
Continuous
 62
     7
100
AcDbCircle
 10
1710.6
 20
1656.0
 30
0.0
 40
52.0
100
AcDbArc
 50
211.15518
 51
238.84482
  0
ARC
  5
265
330
1F
100
AcDbEntity
  8
作図線（太線）
  6
Continuous
 62
     7
100
AcDbCircle
 10
1710.6
 20
1656.0
 30
0.0
 40
52.0
100
AcDbArc
 50
301.15518
 51
328.84482
  0
ARC
  5
266
330
1F
100
AcDbEntity
  8
作図線（太線）
  6
Continuous
 62
     7
100
AcDbCircle
 10
1710.6
 20
1656.0
 30
0.0
 40
52.0
100
AcDbArc
 50
31.15518
 51
58.84482000000001
  0
LWPOLYLINE
  5
267
330
1F
100
AcDbEntity
  8
作図線（太線）
  6
Continuous
 62
     7
100
AcDbPolyline
 90
        2
 70
   128
 43
0.0
 10
1666.1
 20
1682.902602
 10
1666.1
 20
1629.097398
  0
LWPOLYLINE
  5
26B
330
1F
100
AcDbEntity
  8
作図線（太線）
  6
Continuous
 62
     7
100
AcDbPolyline
 90
        2
 70
   128
 43
0.0
 10
1683.697398
 20
1611.5
 10
1737.502602
 20
1611.5
  0
LWPOLYLINE
  5
26F
330
1F
100
AcDbEntity
  8
作図線（太線）
  6
Continuous
 62
     7
100
AcDbPolyline
 90
        2
 70
   128
 43
0.0
 10
1755.1
 20
1629.097398
 10
1755.1
 20
1682.902602
  0
LWPOLYLINE
  5
273
330
1F
100
AcDbEntity
  8
作図線（太線）
  6
Continuous
 62
     7
100
AcDbPolyline
 90
        2
 70
   128
 43
0.0
 10
1737.502602
 20
1700.5
 10
1683.697398
 20
1700.5
  0
CIRCLE
  5
277
330
1F
100
AcDbEntity
  8
作図線（太線）
  6
Continuous
 62
     7
100
AcDbCircle
 10
1669.35
 20
1697.25
 30
0.0
 40
2.25
  0
CIRCLE
  5
278
330
1F
100
AcDbEntity
  8
作図線（太線）
  6
Continuous
 62
     7
100
AcDbCircle
 10
1751.85
 20
1697.25
 30
0.0
 40
2.25
  0
CIRCLE
  5
279
330
1F
100
AcDbEntity
  8
作図線（太線）
  6
Continuous
 62
     7
100
AcDbCircle
 10
1669.35
 20
1614.75
 30
0.0
 40
2.25
  0
CIRCLE
  5
27A
330
1F
100
AcDbEntity
  8
作図線（太線）
  6
Continuous
 62
     7
100
AcDbCircle
 10
1751.85
 20
1614.75
 30
0.0
 40
2.25
  0
ARC
  5
27B
330
1F
100
AcDbEntity
  8
作図線（太線）
  6
Continuous
 62
     7
100
AcDbCircle
 10
1234.0
 20
1046.0
 30
0.0
 40
50.0
100
AcDbArc
 50
0.0
 51
90.0
  0
LINE
  5
27C
330
1F
100
AcDbEntity
  8
作図線（太線）
  6
Continuous
 62
     7
100
AcDbLine
 10
1262.67658
 20
1096.0
 30
0.0
 11
1209.0
 21
1096.0
 31
0.0
  0
LINE
  5
27D
330
1F
100
AcDbEntity
  8
作図線（太線）
  6
Continuous
 62
     7
100
AcDbLine
 10
1284.0
 20
1046.0
 30
0.0
 11
1284.0
 21
1011.0
 31
0.0
  0
LINE
  5
27E
330
1F
100
AcDbEntity
  8
作図線（太線）
  6
Continuous
 62
     7
100
AcDbLine
 10
521.1
 20
625.2
 30
0.0
 11
521.1
 21
629.2
 31
0.0
  0
LINE
  5
27F
330
1F
100
AcDbEntity
  8
作図線（太線）
  6
Continuous
 62
     7
100
AcDbLine
 10
521.099996
 20
625.200004
 30
0.0
 11
551.1
 21
595.200004
 31
0.0
  0
LINE
  5
280
330
1F
100
AcDbEntity
  8
作図線（太線）
  6
Continuous
 62
     7
100
AcDbLine
 10
521.1
 20
629.200004
 30
0.0
 11
551.099998
 21
659.2
 31
0.0
  0
LINE
  5
281
330
1F
100
AcDbEntity
  8
作図線（太線）
  6
Continuous
 62
     3
100
AcDbLine
 10
562.10453
 20
626.801184
 30
0.0
 11
507.424484
 21
626.801184
 31
0.0
  0
LINE
  5
282
330
1F
100
AcDbEntity
  8
作図線（太線）
  6
EXLTYPE3
 62
     3
100
AcDbLine
 10
551.1
 20
603.4
 30
0.0
 11
551.1
 21
647.2
 31
0.0
  0
CIRCLE
  5
283
330
1F
100
AcDbEntity
  8
作図線（太線）
  6
Continuous
 62
     7
100
AcDbCircle
 10
551.1
 20
626.801184
 30
0.0
 40
2.6
  0
CIRCLE
  5
284
330
1F
100
AcDbEntity
  8
作図線（太線）
  6
Continuous
 62
     3
100
AcDbCircle
 10
551.1
 20
626.801184
 30
0.0
 40
4.0
  0
LINE
  5
285
330
1F
100
AcDbEntity
  8
作図線（太線）
  6
Continuous
 62
     7
100
AcDbLine
 10
551.099998
 20
659.2
 30
0.0
 11
565.1
 21
659.2
 31
0.0
  0
LINE
  5
286
330
1F
100
AcDbEntity
  8
作図線（太線）
  6
Continuous
 62
     7
100
AcDbLine
 10
551.1
 20
595.200004
 30
0.0
 11
565.1
 21
595.200004
 31
0.0
  0
LINE
  5
287
330
1F
100
AcDbEntity
  8
作図線（太線）
  6
Continuous
 62
     7
100
AcDbLine
 10
565.1
 20
592.2
 30
0.0
 11
581.1
 21
592.2
 31
0.0
  0
ARC
  5
288
330
1F
100
AcDbEntity
  8
作図線（太線）
  6
Continuous
 62
     7
100
AcDbCircle
 10
591.1
 20
592.2
 30
0.0
 40
10.0
100
AcDbArc
 50
180.0
 51
270.0
  0
ARC
  5
289
330
1F
100
AcDbEntity
  8
作図線（太線）
  6
Continuous
 62
     7
100
AcDbCircle
 10
571.1
 20
672.2
 30
0.0
 40
10.0
100
AcDbArc
 50
270.0
 51
0.0
  0
LINE
  5
28A
330
1F
100
AcDbEntity
  8
作図線（太線）
  6
Continuous
 62
     7
100
AcDbLine
 10
565.1
 20
595.200004
 30
0.0
 11
565.1
 21
592.2
 31
0.0
  0
LINE
  5
28B
330
1F
100
AcDbEntity
  8
作図線（太線）
  6
Continuous
 62
     7
100
AcDbLine
 10
565.1
 20
662.2
 30
0.0
 11
571.100002
 21
662.2
 31
0.0
  0
LINE
  5
28C
330
1F
100
AcDbEntity
  8
作図線（太線）
  6
Continuous
 62
     7
100
AcDbLine
 10
565.1
 20
662.2
 30
0.0
 11
565.1
 21
659.2
 31
0.0
  0
LINE
  5
28D
330
1F
100
AcDbEntity
  8
作図線（太線）
  6
Continuous
 62
     7
100
AcDbLine
 10
571.1
 20
592.2
 30
0.0
 11
571.1
 21
662.2
 31
0.0
  0
LINE
  5
28E
330
1F
100
AcDbEntity
  8
作図線（太線）
  6
Continuous
 62
     7
100
AcDbLine
 10
591.1
 20
582.2
 30
0.0
 11
771.1
 21
582.2
 31
0.0
  0
LINE
  5
28F
330
1F
100
AcDbEntity
  8
作図線（太線）
  6
Continuous
 62
     7
100
AcDbLine
 10
797.1
 20
592.2
 30
0.0
 11
781.1
 21
592.2
 31
0.0
  0
ARC
  5
290
330
1F
100
AcDbEntity
  8
作図線（太線）
  6
Continuous
 62
     7
100
AcDbCircle
 10
771.1
 20
592.2
 30
0.0
 40
10.0
100
AcDbArc
 50
270.0
 51
0.0
  0
LINE
  5
291
330
1F
100
AcDbEntity
  8
作図線（太線）
  6
Continuous
 62
     7
100
AcDbLine
 10
797.1
 20
595.200004
 30
0.0
 11
797.1
 21
592.2
 31
0.0
  0
LINE
  5
292
330
1F
100
AcDbEntity
  8
作図線（太線）
  6
Continuous
 62
     7
100
AcDbLine
 10
811.1
 20
595.200004
 30
0.0
 11
797.1
 21
595.200004
 31
0.0
  0
LINE
  5
293
330
1F
100
AcDbEntity
  8
作図線（太線）
  6
Continuous
 62
     7
100
AcDbLine
 10
841.100002
 20
625.200004
 30
0.0
 11
811.1
 21
595.200004
 31
0.0
  0
CIRCLE
  5
294
330
1F
100
AcDbEntity
  8
作図線（太線）
  6
Continuous
 62
     7
100
AcDbCircle
 10
811.1
 20
626.801184
 30
0.0
 40
2.6
  0
CIRCLE
  5
295
330
1F
100
AcDbEntity
  8
作図線（太線）
  6
Continuous
 62
     3
100
AcDbCircle
 10
811.1
 20
626.801184
 30
0.0
 40
4.0
  0
LINE
  5
296
330
1F
100
AcDbEntity
  8
作図線（太線）
  6
EXLTYPE3
 62
     3
100
AcDbLine
 10
811.1
 20
603.4
 30
0.0
 11
811.1
 21
647.2
 31
0.0
  0
LINE
  5
297
330
1F
100
AcDbEntity
  8
作図線（太線）
  6
Continuous
 62
     3
100
AcDbLine
 10
800.09547
 20
626.801184
 30
0.0
 11
854.775516
 21
626.801184
 31
0.0
  0
LINE
  5
298
330
1F
100
AcDbEntity
  8
作図線（太線）
  6
Continuous
 62
     7
100
AcDbLine
 10
841.1
 20
625.2
 30
0.0
 11
841.1
 21
629.2
 31
0.0
  0
LINE
  5
299
330
1F
100
AcDbEntity
  8
作図線（太線）
  6
Continuous
 62
     7
100
AcDbLine
 10
841.1
 20
629.200004
 30
0.0
 11
811.100002
 21
659.2
 31
0.0
  0
LINE
  5
29A
330
1F
100
AcDbEntity
  8
作図線（太線）
  6
Continuous
 62
     7
100
AcDbLine
 10
811.100002
 20
659.2
 30
0.0
 11
797.1
 21
659.2
 31
0.0
  0
ARC
  5
29B
330
1F
100
AcDbEntity
  8
作図線（太線）
  6
Continuous
 62
     7
100
AcDbCircle
 10
791.1
 20
672.2
 30
0.0
 40
10.0
100
AcDbArc
 50
180.0
 51
270.0
  0
LINE
  5
29C
330
1F
100
AcDbEntity
  8
作図線（太線）
  6
Continuous
 62
     7
100
AcDbLine
 10
797.1
 20
662.2
 30
0.0
 11
791.1
 21
662.2
 31
0.0
  0
LINE
  5
29D
330
1F
100
AcDbEntity
  8
作図線（太線）
  6
Continuous
 62
     7
100
AcDbLine
 10
797.1
 20
662.2
 30
0.0
 11
797.1
 21
659.2
 31
0.0
  0
LINE
  5
29E
330
1F
100
AcDbEntity
  8
作図線（太線）
  6
Continuous
 62
     7
100
AcDbLine
 10
791.1
 20
592.2
 30
0.0
 11
791.1
 21
662.2
 31
0.0
  0
LINE
  5
29F
330
1F
100
AcDbEntity
  8
作図線（太線）
  6
Continuous
 62
     7
100
AcDbLine
 10
781.1
 20
672.2
 30
0.0
 11
781.1
 21
702.2
 31
0.0
  0
LINE
  5
2A0
330
1F
100
AcDbEntity
  8
作図線（太線）
  6
Continuous
 62
     7
100
AcDbLine
 10
581.1
 20
672.2
 30
0.0
 11
581.1
 21
702.2
 31
0.0
  0
LINE
  5
2A1
330
1F
100
AcDbEntity
  8
作図線（太線）
  6
Continuous
 62
     7
100
AcDbLine
 10
747.195966
 20
746.2
 30
0.0
 11
681.1
 21
746.2
 31
0.0
  0
ARC
  5
2A2
330
1F
100
AcDbEntity
  8
作図線（太線）
  6
Continuous
 62
     7
100
AcDbCircle
 10
621.1
 20
702.2
 30
0.0
 40
40.0
100
AcDbArc
 50
90.0
 51
180.0
  0
LINE
  5
2A3
330
1F
100
AcDbEntity
  8
作図線（太線）
  6
Continuous
 62
     7
100
AcDbLine
 10
611.1
 20
740.929834
 30
0.0
 11
613.372132
 21
746.2
 31
0.0
  0
LINE
  5
2A4
330
1F
100
AcDbEntity
  8
作図線（太線）
  6
Continuous
 62
     7
100
AcDbLine
 10
613.372132
 20
746.2
 30
0.0
 11
681.1
 21
746.2
 31
0.0
  0
ARC
  5
2A5
330
1F
100
AcDbEntity
  8
作図線（太線）
  6
Continuous
 62
     7
100
AcDbCircle
 10
741.1
 20
702.2
 30
0.0
 40
40.0
100
AcDbArc
 50
0.0
 51
90.0
  0
LINE
  5
2A6
330
1F
100
AcDbEntity
  8
作図線（太線）
  6
Continuous
 62
     7
100
AcDbLine
 10
752.596164
 20
740.667058
 30
0.0
 11
747.195966
 21
746.2
 31
0.0
  0
LINE
  5
2A7
330
1F
100
AcDbEntity
  8
作図線（太線）
  6
Continuous
 62
     7
100
AcDbLine
 10
621.1
 20
742.2
 30
0.0
 11
622.162408
 21
746.2
 31
0.0
  0
LINE
  5
2A8
330
1F
100
AcDbEntity
  8
作図線（太線）
  6
Continuous
 62
     7
100
AcDbLine
 10
741.1
 20
742.2
 30
0.0
 11
739.31818
 21
746.2
 31
0.0
  0
LINE
  5
2A9
330
1F
100
AcDbEntity
  8
作図線（太線）
  6
Continuous
 62
     7
100
AcDbLine
 10
725.9
 20
722.2
 30
0.0
 11
636.3
 21
722.2
 31
0.0
  0
LINE
  5
2AA
330
1F
100
AcDbEntity
  8
作図線（太線）
  6
Continuous
 62
     7
100
AcDbLine
 10
725.9
 20
722.2
 30
0.0
 11
725.9
 21
746.2
 31
0.0
  0
LINE
  5
2AB
330
1F
100
AcDbEntity
  8
作図線（太線）
  6
Continuous
 62
     7
100
AcDbLine
 10
636.3
 20
722.2
 30
0.0
 11
636.3
 21
746.2
 31
0.0
  0
CIRCLE
  5
2AC
330
1F
100
AcDbEntity
  8
作図線（太線）
  6
Continuous
 62
     7
100
AcDbCircle
 10
681.1
 20
662.2
 30
0.0
 40
25.4
  0
LINE
  5
2AD
330
1F
100
AcDbEntity
  8
作図線（太線）
  6
EXLTYPE3
 62
     3
100
AcDbLine
 10
782.01547
 20
662.2
 30
0.0
 11
581.49547
 21
662.2
 31
0.0
  0
LINE
  5
2AE
330
1F
100
AcDbEntity
  8
作図線（太線）
  6
Continuous
 62
     1
100
AcDbLine
 10
521.1
 20
623.2
 30
0.0
 11
521.1
 21
511.7
 31
0.0
  0
LINE
  5
2AF
330
1F
100
AcDbEntity
  8
作図線（太線）
  6
Continuous
 62
     1
100
AcDbLine
 10
841.1
 20
623.200002
 30
0.0
 11
841.1
 21
511.7
 31
0.0
  0
DIMENSION
  5
2BC
330
1F
100
AcDbEntity
  8
作図線（太線）
  6
Continuous
 62
     1
100
AcDbDimension
  2
*D14
 10
781.1
 20
797.3
 30
0.0
 11
681.1
 21
814.8
 31
0.0
 70
    32
  1
100
 71
     5
 42
-1.0
  3
Standard
100
AcDbAlignedDimension
 13
581.1
 23
702.2
 33
0.0
 14
781.1
 24
702.2
 34
0.0
100
AcDbRotatedDimension
1001
ACAD
1000
DSTYLE
1002
{
1070
   344
1005
30
1070
   343
1005
30
1070
    41
1040
21.0
1070
    42
1040
3.5
1070
    44
1040
3.5
1070
    73
1070
     0
1070
    74
1070
     0
1070
    75
1070
     0
1070
    76
1070
     0
1070
    77
1070
     1
1070
    78
1070
     8
1070
   140
1040
27.999998
1070
   147
1040
3.5
1070
   173
1070
     1
1070
   176
1070
     1
1070
   177
1070
     1
1070
   178
1070
     1
1070
   271
1070
     2
1070
   279
1070
     2
1070
   280
1070
     0
1070
   340
1005
2BB
1002
}
  0
DIMENSION
  5
2C8
330
1F
100
AcDbEntity
  8
作図線（太線）
  6
Continuous
 62
     1
100
AcDbDimension
  2
*D15
 10
920.5
 20
662.2
 30
0.0
 11
903.0
 21
702.2
 31
0.0
 70
    32
  1
40
 71
     5
 42
-1.0
  3
Standard
100
AcDbAlignedDimension
 13
741.1
 23
742.2
 33
0.0
 14
797.29547
 24
662.2
 34
0.0
 50
90.0
100
AcDbRotatedDimension
1001
ACAD
1000
DSTYLE
1002
{
1070
   344
1005
30
1070
   343
1005
30
1070
    41
1040
21.0
1070
    42
1040
3.5
1070
    44
1040
3.5
1070
    73
1070
     0
1070
    74
1070
     0
1070
    75
1070
     0
1070
    76
1070
     0
1070
    77
1070
     1
1070
    78
1070
     8
1070
   140
1040
27.999998
1070
   147
1040
3.5
1070
   173
1070
     1
1070
   176
1070
     1
1070
   177
1070
     1
1070
   178
1070
     1
1070
   271
1070
     2
1070
   279
1070
     2
1070
   280
1070
     0
1070
   340
1005
2BB
1002
}
  0
DIMENSION
  5
2D3
330
1F
100
AcDbEntity
  8
作図線（太線）
  6
Continuous
 62
     1
100
AcDbDimension
  2
*D16
 10
920.5
 20
582.2
 30
0.0
 11
903.0
 21
622.2
 31
0.0
 70
    32
  1
40
 71
     5
 42
-1.0
  3
Standard
100
AcDbAlignedDimension
 13
797.29547
 23
662.2
 33
0.0
 14
771.1
 24
582.2
 34
0.0
 50
90.0
100
AcDbRotatedDimension
1001
ACAD
1000
DSTYLE
1002
{
1070
   344
1005
30
1070
   343
1005
30
1070
    41
1040
21.0
1070
    42
1040
3.5
1070
    44
1040
3.5
1070
    73
1070
     0
1070
    74
1070
     0
1070
    75
1070
     1
1070
    76
1070
     0
1070
    77
1070
     1
1070
    78
1070
     8
1070
   140
1040
27.999998
1070
   147
1040
3.5
1070
   173
1070
     1
1070
   176
1070
     1
1070
   177
1070
     1
1070
   178
1070
     1
1070
   271
1070
     2
1070
   279
1070
     2
1070
   280
1070
     0
1070
   340
1005
2BB
1002
}
  0
DIMENSION
  5
2DD
330
1F
100
AcDbEntity
  8
作図線（太線）
  6
Continuous
 62
     1
100
AcDbDimension
  2
*D17
 10
841.1
 20
517.3
 30
0.0
 11
681.1
 21
534.8
 31
0.0
 70
    32
  1
160
 71
     5
 42
-1.0
  3
Standard
100
AcDbAlignedDimension
 13
521.1
 23
440.2
 33
0.0
 14
841.1
 24
440.2
 34
0.0
100
AcDbRotatedDimension
1001
ACAD
1000
DSTYLE
1002
{
1070
   344
1005
30
1070
   343
1005
30
1070
    41
1040
21.0
1070
    42
1040
0.0
1070
    44
1040
0.0
1070
    73
1070
     0
1070
    74
1070
     0
1070
    75
1070
     1
1070
    76
1070
     1
1070
    77
1070
     1
1070
    78
1070
     8
1070
   140
1040
27.999998
1070
   147
1040
3.5
1070
   173
1070
     1
1070
   176
1070
     1
1070
   177
1070
     1
1070
   178
1070
     1
1070
   271
1070
     2
1070
   279
1070
     2
1070
   280
1070
     0
1070
   340
1005
2BB
1002
}
  0
LINE
  5
2DE
330
1F
100
AcDbEntity
  8
作図線（太線）
  6
EXLTYPE3
 62
     3
100
AcDbLine
 10
681.1
 20
564.9
 30
0.0
 11
681.1
 21
763.7
 31
0.0
  0
DIMENSION
  5
2EA
330
1F
100
AcDbEntity
  8
寸法線
  6
Continuous
 62
     1
100
AcDbDimension
  2
*D18
 10
817.0
 20
1855.0
 30
0.0
 11
704.5
 21
1872.5
 31
0.0
 70
    32
 71
     5
 42
-1.0
  3
Standard
100
AcDbAlignedDimension
 13
557.0
 23
1720.522718
 33
0.0
 14
817.0
 24
1720.522718
 34
0.0
100
AcDbRotatedDimension
1001
ACAD
1000
DSTYLE
1002
{
1070
   344
1005
30
1070
   343
1005
30
1070
    41
1040
21.0
1070
    42
1040
3.5
1070
    44
1040
3.5
1070
    73
1070
     0
1070
    74
1070
     0
1070
    75
1070
     0
1070
    76
1070
     0
1070
    77
1070
     1
1070
    78
1070
     8
1070
   140
1040
27.999998
1070
   147
1040
3.5
1070
   173
1070
     1
1070
   176
1070
     1
1070
   177
1070
     1
1070
   178
1070
     1
1070
   271
1070
     2
1070
   279
1070
     2
1070
   280
1070
     0
1070
   340
1005
2BB
1002
}
  0
DIMENSION
  5
2F6
330
1F
100
AcDbEntity
  8
寸法線
  6
Continuous
 62
     1
100
AcDbDimension
  2
*D19
 10
940.0
 20
1011.0
 30
0.0
 11
922.5
 21
1377.5
 31
0.0
 70
    32
  1
760
 71
     5
 42
-1.0
  3
Standard
100
AcDbAlignedDimension
 13
777.0
 23
1770.522718
 33
0.0
 14
862.0
 24
1011.0
 34
0.0
 50
90.0
100
AcDbRotatedDimension
1001
ACAD
1000
DSTYLE
1002
{
1070
   344
1005
30
1070
   343
1005
30
1070
    41
1040
21.0
1070
    42
1040
3.5
1070
    44
1040
3.5
1070
    73
1070
     0
1070
    74
1070
     0
1070
    75
1070
     0
1070
    76
1070
     0
1070
    77
1070
     1
1070
    78
1070
     8
1070
   140
1040
27.999998
1070
   147
1040
3.5
1070
   173
1070
     1
1070
   176
1070
     1
1070
   177
1070
     1
1070
   178
1070
     1
1070
   271
1070
     2
1070
   279
1070
     2
1070
   280
1070
     0
1070
   340
1005
2BB
1002
}
  0
DIMENSION
  5
302
330
1F
100
AcDbEntity
  8
寸法線
  6
Continuous
 62
     1
100
AcDbDimension
  2
*D20
 10
448.7
 20
1041.0
 30
0.0
 11
431.2
 21
1030.4
 31
0.0
 70
    32
 71
     5
 42
-1.0
  3
Standard
100
AcDbAlignedDimension
 13
512.0
 23
1011.0
 33
0.0
 14
512.0
 24
1041.0
 34
0.0
 50
90.0
100
AcDbRotatedDimension
1001
ACAD
1000
DSTYLE
1002
{
1070
   344
1005
30
1070
   343
1005
30
1070
    41
1040
21.0
1070
    42
1040
3.5
1070
    44
1040
3.5
1070
    73
1070
     0
1070
    74
1070
     0
1070
    75
1070
     0
1070
    76
1070
     0
1070
    77
1070
     1
1070
    78
1070
     8
1070
   140
1040
27.999998
1070
   147
1040
3.5
1070
   173
1070
     1
1070
   176
1070
     1
1070
   177
1070
     1
1070
   178
1070
     1
1070
   271
1070
     2
1070
   279
1070
     2
1070
   280
1070
     0
1070
   340
1005
2BB
1002
}
  0
DIMENSION
  5
30E
330
1F
100
AcDbEntity
  8
寸法線
  6
Continuous
 62
     1
100
AcDbDimension
  2
*D21
 10
1010.0
 20
1089.0
 30
0.0
 11
992.5
 21
1056.0
 31
0.0
 70
    32
 71
     5
 42
-1.0
  3
Standard
100
AcDbAlignedDimension
 13
1284.0
 23
1011.0
 33
0.0
 14
1127.0
 24
1089.0
 34
0.0
 50
90.0
100
AcDbRotatedDimension
1001
ACAD
1000
DSTYLE
1002
{
1070
   344
1005
30
1070
   343
1005
30
1070
    41
1040
21.0
1070
    42
1040
3.5
1070
    44
1040
3.5
1070
    73
1070
     0
1070
    74
1070
     0
1070
    75
1070
     0
1070
    76
1070
     0
1070
    77
1070
     1
1070
    78
1070
     8
1070
   140
1040
27.999998
1070
   147
1040
3.5
1070
   173
1070
     1
1070
   176
1070
     1
1070
   177
1070
     1
1070
   178
1070
     1
1070
   271
1070
     2
1070
   279
1070
     2
1070
   280
1070
     0
1070
   340
1005
2BB
1002
}
  0
DIMENSION
  5
31A
330
1F
100
AcDbEntity
  8
寸法線
  6
Continuous
 62
     1
100
AcDbDimension
  2
*D22
 10
1590.0
 20
937.0
 30
0.0
 11
1433.5
 21
954.5
 31
0.0
 70
    32
 71
     5
 42
-1.0
  3
Standard
100
AcDbAlignedDimension
 13
1284.0
 23
1011.0
 33
0.0
 14
1590.0
 24
1011.0
 34
0.0
100
AcDbRotatedDimension
1001
ACAD
1000
DSTYLE
1002
{
1070
   344
1005
30
1070
   343
1005
30
1070
    41
1040
21.0
1070
    42
1040
3.5
1070
    44
1040
3.5
1070
    73
1070
     0
1070
    74
1070
     0
1070
    75
1070
     0
1070
    76
1070
     0
1070
    77
1070
     1
1070
    78
1070
     8
1070
   140
1040
27.999998
1070
   147
1040
3.5
1070
   173
1070
     1
1070
   176
1070
     1
1070
   177
1070
     1
1070
   178
1070
     1
1070
   271
1070
     2
1070
   279
1070
     2
1070
   280
1070
     0
1070
   340
1005
2BB
1002
}
  0
LINE
  5
31B
330
1F
100
AcDbEntity
  8
寸法線
  6
Continuous
 62
     1
100
AcDbLine
 10
1284.0
 20
1007.5
 30
0.0
 11
1284.0
 21
933.5
 31
0.0
  0
DIMENSION
  5
327
330
1F
100
AcDbEntity
  8
寸法線
  6
Continuous
 62
     1
100
AcDbDimension
  2
*D23
 10
1200.5
 20
642.0
 30
0.0
 11
1183.0
 21
594.5
 31
0.0
 70
    32
 71
     5
 42
-1.0
  3
Standard
100
AcDbAlignedDimension
 13
1250.0
 23
547.0
 33
0.0
 14
1250.0
 24
642.0
 34
0.0
 50
90.0
100
AcDbRotatedDimension
1001
ACAD
1000
DSTYLE
1002
{
1070
   344
1005
30
1070
   343
1005
30
1070
    41
1040
21.0
1070
    42
1040
3.5
1070
    44
1040
3.5
1070
    73
1070
     0
1070
    74
1070
     0
1070
    75
1070
     0
1070
    76
1070
     0
1070
    77
1070
     1
1070
    78
1070
     8
1070
   140
1040
27.999998
1070
   147
1040
3.5
1070
   173
1070
     1
1070
   176
1070
     1
1070
   177
1070
     1
1070
   178
1070
     1
1070
   271
1070
     2
1070
   279
1070
     2
1070
   280
1070
     0
1070
   340
1005
2BB
1002
}
  0
DIMENSION
  5
332
330
1F
100
AcDbEntity
  8
寸法線
  6
Continuous
 62
     1
100
AcDbDimension
  2
*D24
 10
1200.5
 20
762.0
 30
0.0
 11
1183.0
 21
702.0
 31
0.0
 70
    32
 71
     5
 42
-1.0
  3
Standard
100
AcDbAlignedDimension
 13
1250.0
 23
642.0
 33
0.0
 14
1250.0
 24
762.0
 34
0.0
 50
90.0
100
AcDbRotatedDimension
1001
ACAD
1000
DSTYLE
1002
{
1070
   344
1005
30
1070
   343
1005
30
1070
    41
1040
21.0
1070
    42
1040
3.5
1070
    44
1040
3.5
1070
    73
1070
     0
1070
    74
1070
     0
1070
    75
1070
     1
1070
    76
1070
     0
1070
    77
1070
     1
1070
    78
1070
     8
1070
   140
1040
27.999998
1070
   147
1040
3.5
1070
   173
1070
     1
1070
   176
1070
     1
1070
   177
1070
     1
1070
   178
1070
     1
1070
   271
1070
     2
1070
   279
1070
     2
1070
   280
1070
     0
1070
   340
1005
2BB
1002
}
  0
DIMENSION
  5
33D
330
1F
100
AcDbEntity
  8
寸法線
  6
Continuous
 62
     1
100
AcDbDimension
  2
*D25
 10
1200.5
 20
857.0
 30
0.0
 11
1183.0
 21
809.5
 31
0.0
 70
    32
 71
     5
 42
-1.0
  3
Standard
100
AcDbAlignedDimension
 13
1250.0
 23
762.0
 33
0.0
 14
1250.0
 24
857.0
 34
0.0
 50
90.0
100
AcDbRotatedDimension
1001
ACAD
1000
DSTYLE
1002
{
1070
   344
1005
30
1070
   343
1005
30
1070
    41
1040
21.0
1070
    42
1040
3.5
1070
    44
1040
3.5
1070
    73
1070
     0
1070
    74
1070
     0
1070
    75
1070
     1
1070
    76
1070
     0
1070
    77
1070
     1
1070
    78
1070
     8
1070
   140
1040
27.999998
1070
   147
1040
3.5
1070
   173
1070
     1
1070
   176
1070
     1
1070
   177
1070
     1
1070
   178
1070
     1
1070
   271
1070
     2
1070
   279
1070
     2
1070
   280
1070
     0
1070
   340
1005
2BB
1002
}
  0
DIMENSION
  5
347
330
1F
100
AcDbEntity
  8
寸法線
  6
Continuous
 62
     1
100
AcDbDimension
  2
*D26
 10
1314.0
 20
464.1
 30
0.0
 11
1250.7
 21
481.6
 31
0.0
 70
    32
 71
     5
 42
-1.0
  3
Standard
100
AcDbAlignedDimension
 13
1284.0
 23
527.0
 33
0.0
 14
1314.0
 24
527.0
 34
0.0
100
AcDbRotatedDimension
1001
ACAD
1000
DSTYLE
1002
{
1070
   344
1005
35
1070
   343
1005
30
1070
    41
1040
21.0
1070
    42
1040
3.5
1070
    44
1040
3.5
1070
    73
1070
     0
1070
    74
1070
     0
1070
    75
1070
     0
1070
    76
1070
     0
1070
    77
1070
     1
1070
    78
1070
     8
1070
   140
1040
27.999998
1070
   147
1040
3.5
1070
   173
1070
     1
1070
   176
1070
     1
1070
   177
1070
     1
1070
   178
1070
     1
1070
   271
1070
     2
1070
   279
1070
     2
1070
   280
1070
     0
1070
   340
1005
2BB
1002
}
  0
DIMENSION
  5
350
330
1F
100
AcDbEntity
  8
寸法線
  6
Continuous
 62
     1
100
AcDbDimension
  2
*D27
 10
1374.0
 20
464.1
 30
0.0
 11
1344.0
 21
481.6
 31
0.0
 70
    32
 71
     5
 42
-1.0
  3
Standard
100
AcDbAlignedDimension
 13
1314.0
 23
527.0
 33
0.0
 14
1374.0
 24
527.0
 34
0.0
100
AcDbRotatedDimension
1001
ACAD
1000
DSTYLE
1002
{
1070
   344
1005
35
1070
   343
1005
32
1070
    41
1040
7.0
1070
    42
1040
0.0
1070
    44
1040
0.0
1070
    73
1070
     0
1070
    74
1070
     0
1070
    75
1070
     1
1070
    76
1070
     0
1070
    77
1070
     1
1070
    78
1070
     8
1070
   140
1040
27.999998
1070
   147
1040
3.5
1070
   173
1070
     1
1070
   176
1070
     1
1070
   177
1070
     1
1070
   178
1070
     1
1070
   271
1070
     2
1070
   279
1070
     2
1070
   280
1070
     0
1070
   340
1005
2BB
1002
}
  0
DIMENSION
  5
359
330
1F
100
AcDbEntity
  8
寸法線
  6
Continuous
 62
     1
100
AcDbDimension
  2
*D28
 10
1434.0
 20
464.1
 30
0.0
 11
1404.0
 21
481.6
 31
0.0
 70
    32
 71
     5
 42
-1.0
  3
Standard
100
AcDbAlignedDimension
 13
1374.0
 23
527.0
 33
0.0
 14
1434.0
 24
527.0
 34
0.0
100
AcDbRotatedDimension
1001
ACAD
1000
DSTYLE
1002
{
1070
   344
1005
35
1070
   343
1005
32
1070
    41
1040
7.0
1070
    42
1040
3.5
1070
    44
1040
3.5
1070
    73
1070
     0
1070
    74
1070
     0
1070
    75
1070
     1
1070
    76
1070
     0
1070
    77
1070
     1
1070
    78
1070
     8
1070
   140
1040
27.999998
1070
   147
1040
3.5
1070
   173
1070
     1
1070
   176
1070
     1
1070
   177
1070
     1
1070
   178
1070
     1
1070
   271
1070
     2
1070
   279
1070
     2
1070
   280
1070
     0
1070
   340
1005
2BB
1002
}
  0
DIMENSION
  5
364
330
1F
100
AcDbEntity
  8
寸法線
  6
Continuous
 62
     1
100
AcDbDimension
  2
*D29
 10
1554.0
 20
464.1
 30
0.0
 11
1494.0
 21
481.6
 31
0.0
 70
    32
 71
     5
 42
-1.0
  3
Standard
100
AcDbAlignedDimension
 13
1434.0
 23
527.0
 33
0.0
 14
1554.0
 24
527.0
 34
0.0
100
AcDbRotatedDimension
1001
ACAD
1000
DSTYLE
1002
{
1070
   344
1005
30
1070
   343
1005
30
1070
    41
1040
21.0
1070
    42
1040
3.5
1070
    44
1040
3.5
1070
    73
1070
     0
1070
    74
1070
     0
1070
    75
1070
     1
1070
    76
1070
     0
1070
    77
1070
     1
1070
    78
1070
     8
1070
   140
1040
27.999998
1070
   147
1040
3.5
1070
   173
1070
     1
1070
   176
1070
     1
1070
   177
1070
     1
1070
   178
1070
     1
1070
   271
1070
     2
1070
   279
1070
     2
1070
   280
1070
     0
1070
   340
1005
2BB
1002
}
  0
DIMENSION
  5
370
330
1F
100
AcDbEntity
  8
寸法線
  6
Continuous
 62
     1
100
AcDbDimension
  2
*D30
 10
1810.6
 20
1855.0
 30
0.0
 11
1435.5
 21
1872.5
 31
0.0
 70
    32
  1
706
 71
     5
 42
-1.0
  3
Standard
100
AcDbAlignedDimension
 13
1104.0
 23
1721.0
 33
0.0
 14
1810.6
 24
1721.0
 34
0.0
100
AcDbRotatedDimension
1001
ACAD
1000
DSTYLE
1002
{
1070
   344
1005
30
1070
   343
1005
30
1070
    41
1040
21.0
1070
    42
1040
3.5
1070
    44
1040
3.5
1070
    73
1070
     0
1070
    74
1070
     0
1070
    75
1070
     0
1070
    76
1070
     0
1070
    77
1070
     1
1070
    78
1070
     8
1070
   140
1040
27.999998
1070
   147
1040
3.5
1070
   173
1070
     1
1070
   176
1070
     1
1070
   177
1070
     1
1070
   178
1070
     1
1070
   271
1070
     2
1070
   279
1070
     2
1070
   280
1070
     0
1070
   340
1005
2BB
1002
}
  0
DIMENSION
  5
37C
330
1F
100
AcDbEntity
  8
寸法線
  6
Continuous
 62
     1
100
AcDbDimension
  2
*D31
 10
1169.0
 20
938.0
 30
0.0
 11
1136.1
 21
955.5
 31
0.0
 70
    32
 71
     5
 42
-1.0
  3
Standard
100
AcDbAlignedDimension
 13
1104.0
 23
1093.0
 33
0.0
 14
1169.0
 24
933.8
 34
0.0
100
AcDbRotatedDimension
1001
ACAD
1000
DSTYLE
1002
{
1070
   344
1005
30
1070
   343
1005
30
1070
    41
1040
21.0
1070
    42
1040
3.5
1070
    44
1040
3.5
1070
    73
1070
     0
1070
    74
1070
     0
1070
    75
1070
     0
1070
    76
1070
     0
1070
    77
1070
     1
1070
    78
1070
     8
1070
   140
1040
27.999998
1070
   147
1040
3.5
1070
   173
1070
     1
1070
   176
1070
     1
1070
   177
1070
     1
1070
   178
1070
     1
1070
   271
1070
     2
1070
   279
1070
     2
1070
   280
1070
     0
1070
   340
1005
2BB
1002
}
  0
TEXT
  5
37D
330
1F
100
AcDbEntity
  8
寸法線
  6
Continuous
 62
     1
100
AcDbText
 10
351.4
 20
667.1
 30
0.0
 40
27.999998
  1
φ２５．４深さ３７
 41
0.6490385078983549
  7
EXCADSTD
 72
     5
 11
540.4
 21
667.1
 31
0.0
100
AcDbText
  0
TEXT
  5
37E
330
1F
100
AcDbEntity
  8
寸法線
  6
Continuous
 62
     1
100
AcDbText
 10
1204.563026
 20
1033.082834
 30
0.0
 40
27.999998
  1
Ｒ
 50
29.94281166453365
 41
0.7200000621753699
  7
EXCADSTD
 72
     5
 11
1219.12063
 21
1041.468308
 31
0.0
100
AcDbText
  0
TEXT
  5
37F
330
1F
100
AcDbEntity
  8
寸法線
  6
Continuous
 62
     1
100
AcDbText
 10
1222.760031
 20
1043.564677
 30
0.0
 40
27.999998
  1
５０
 50
29.94281250929414
 41
0.6991017493615621
  7
EXCADSTD
 72
     5
 11
1256.11878
 21
1062.779991
 31
0.0
100
AcDbText
  0
LEADER
  5
380
330
1F
100
AcDbEntity
  8
寸法線
  6
Continuous
 62
     1
100
AcDbLeader
  3
Standard
 76
     2
 10
1277.326201
 20
1070.956768
 30
0.0
 10
1206.31
 20
1030.05
 30
0.0
1001
ACAD
1000
DSTYLE
1002
{
1070
    41
1040
21.0
1070
     5
1000
_EX_NORM
1070
     6
1000
_EX_NORM
1070
     7
1000
_EX_NORM
1070
   341
1005
30
1002
}
  0
DIMENSION
  5
38C
330
1F
100
AcDbEntity
  8
寸法線
  6
Continuous
 62
     1
100
AcDbDimension
  2
*D32
 10
817.0
 20
1855.0
 30
0.0
 11
852.0
 21
1872.5
 31
0.0
 70
    32
  1
(70)
 71
     5
 42
-1.0
  3
Standard
100
AcDbAlignedDimension
 13
887.0
 23
1419.0
 33
0.0
 14
817.0
 24
1730.522718
 34
0.0
100
AcDbRotatedDimension
1001
ACAD
1000
DSTYLE
1002
{
1070
   344
1005
30
1070
   343
1005
30
1070
    41
1040
21.0
1070
    42
1040
3.5
1070
    44
1040
3.5
1070
    73
1070
     0
1070
    74
1070
     0
1070
    75
1070
     0
1070
    76
1070
     0
1070
    77
1070
     1
1070
    78
1070
     8
1070
   140
1040
27.999998
1070
   147
1040
3.5
1070
   173
1070
     1
1070
   176
1070
     1
1070
   177
1070
     1
1070
   178
1070
     1
1070
   271
1070
     2
1070
   279
1070
     2
1070
   280
1070
     0
1070
   340
1005
2BB
1002
}
  0
DIMENSION
  5
398
330
1F
100
AcDbEntity
  8
寸法線
  6
Continuous
 62
     1
100
AcDbDimension
  2
*D33
 10
1284.0
 20
937.3
 30
0.0
 11
1226.5
 21
954.8
 31
0.0
 70
    32
  1
(115)
 71
     5
 42
-1.0
  3
Standard
100
AcDbAlignedDimension
 13
1169.0
 23
1039.0
 33
0.0
 14
1284.0
 24
933.5
 34
0.0
100
AcDbRotatedDimension
1001
ACAD
1000
DSTYLE
1002
{
1070
   344
1005
30
1070
   343
1005
30
1070
    41
1040
21.0
1070
    42
1040
3.5
1070
    44
1040
3.5
1070
    73
1070
     0
1070
    74
1070
     0
1070
    75
1070
     0
1070
    76
1070
     0
1070
    77
1070
     1
1070
    78
1070
     8
1070
   140
1040
27.999998
1070
   147
1040
3.5
1070
   173
1070
     1
1070
   176
1070
     1
1070
   177
1070
     1
1070
   178
1070
     1
1070
   271
1070
     2
1070
   279
1070
     2
1070
   280
1070
     0
1070
   340
1005
2BB
1002
}
  0
DIMENSION
  5
3A4
330
1F
100
AcDbEntity
  8
寸法線
  6
Continuous
 62
     1
100
AcDbDimension
  2
*D34
 10
1810.6
 20
937.0
 30
0.0
 11
1700.3
 21
954.5
 31
0.0
 70
    32
  1
(220)
 71
     5
 42
-1.0
  3
Standard
100
AcDbAlignedDimension
 13
1590.0
 23
1011.0
 33
0.0
 14
1810.6
 24
1096.0
 34
0.0
100
AcDbRotatedDimension
1001
ACAD
1000
DSTYLE
1002
{
1070
   344
1005
30
1070
   343
1005
30
1070
    41
1040
21.0
1070
    42
1040
3.5
1070
    44
1040
3.5
1070
    73
1070
     0
1070
    74
1070
     0
1070
    75
1070
     0
1070
    76
1070
     0
1070
    77
1070
     1
1070
    78
1070
     8
1070
   140
1040
27.999998
1070
   147
1040
3.5
1070
   173
1070
     1
1070
   176
1070
     1
1070
   177
1070
     1
1070
   178
1070
     1
1070
   271
1070
     2
1070
   279
1070
     2
1070
   280
1070
     0
1070
   340
1005
2BB
1002
}
  0
DIMENSION
  5
3B0
330
1F
100
AcDbEntity
  8
寸法線
  6
Continuous
 62
     1
100
AcDbDimension
  2
*D35
 10
1590.0
 20
398.3
 30
0.0
 11
1431.5
 21
415.8
 31
0.0
 70
    32
 71
     5
 42
-1.0
  3
Standard
100
AcDbAlignedDimension
 13
1284.0
 23
527.0
 33
0.0
 14
1590.0
 24
527.0
 34
0.0
100
AcDbRotatedDimension
1001
ACAD
1000
DSTYLE
1002
{
1070
   344
1005
30
1070
   343
1005
30
1070
    41
1040
21.0
1070
    42
1040
3.5
1070
    44
1040
3.5
1070
    73
1070
     0
1070
    74
1070
     0
1070
    75
1070
     0
1070
    76
1070
     0
1070
    77
1070
     1
1070
    78
1070
     8
1070
   140
1040
27.999998
1070
   147
1040
3.5
1070
   173
1070
     1
1070
   176
1070
     1
1070
   177
1070
     1
1070
   178
1070
     1
1070
   271
1070
     2
1070
   279
1070
     2
1070
   280
1070
     0
1070
   340
1005
2BB
1002
}
  0
DIMENSION
  5
3BC
330
1F
100
AcDbEntity
  8
寸法線
  6
Continuous
 62
     1
100
AcDbDimension
  2
*D36
 10
1736.7
 20
877.0
 30
0.0
 11
1719.2
 21
704.9
 31
0.0
 70
    32
 71
     5
 42
-1.0
  3
Standard
100
AcDbAlignedDimension
 13
1584.0
 23
527.0
 33
0.0
 14
1590.0
 24
877.0
 34
0.0
 50
90.0
100
AcDbRotatedDimension
1001
ACAD
1000
DSTYLE
1002
{
1070
   344
1005
30
1070
   343
1005
30
1070
    41
1040
21.0
1070
    42
1040
3.5
1070
    44
1040
3.5
1070
    73
1070
     0
1070
    74
1070
     0
1070
    75
1070
     0
1070
    76
1070
     0
1070
    77
1070
     1
1070
    78
1070
     8
1070
   140
1040
27.999998
1070
   147
1040
3.5
1070
   173
1070
     1
1070
   176
1070
     1
1070
   177
1070
     1
1070
   178
1070
     1
1070
   271
1070
     2
1070
   279
1070
     2
1070
   280
1070
     0
1070
   340
1005
2BB
1002
}
  0
TEXT
  5
3BD
330
1F
100
AcDbEntity
  8
寸法線
  6
Continuous
 62
     1
100
AcDbText
 10
964.185997
 20
511.7
 30
0.0
 40
27.999998
  1
９－φ２１（取付穴）
 41
0.679758356711268
  7
EXCADSTD
 72
     5
 11
1174.185997
 21
511.7
 31
0.0
100
AcDbText
  0
LEADER
  5
3BE
330
1F
100
AcDbEntity
  8
寸法線
  6
Continuous
 62
     1
100
AcDbLeader
  3
Standard
 76
     3
 10
1306.662499
 20
634.489269
 30
0.0
 10
1183.285997
 20
508.2
 30
0.0
 10
955.085997
 20
508.2
 30
0.0
1001
ACAD
1000
DSTYLE
1002
{
1070
    41
1040
21.0
1070
     5
1000
_EX_NORM
1070
     6
1000
_EX_NORM
1070
     7
1000
_EX_NORM
1070
   341
1005
30
1002
}
  0
TEXT
  5
3BF
330
1F
100
AcDbEntity
  8
寸法線
  6
Continuous
 62
     1
100
AcDbText
 10
397.25
 20
702.1
 30
0.0
 40
27.999998
  1
シャンク穴
 41
0.6502890637902593
  7
EXCADSTD
 72
     5
 11
502.25
 21
702.1
 31
0.0
100
AcDbText
  0
LEADER
  5
3C0
330
1F
100
AcDbEntity
  8
寸法線
  6
Continuous
 62
     1
100
AcDbLeader
  3
Standard
 76
     3
 10
656.637984
 20
669.038843
 30
0.0
 10
550.9
 20
698.6
 30
0.0
 10
348.6
 20
698.6
 30
0.0
1001
ACAD
1000
DSTYLE
1002
{
1070
    41
1040
21.0
1070
     5
1000
_EX_NORM
1070
     6
1000
_EX_NORM
1070
     7
1000
_EX_NORM
1070
   341
1005
30
1002
}
  0
DIMENSION
  5
3CC
330
1F
100
AcDbEntity
  8
寸法線
  6
Continuous
 62
     1
100
AcDbDimension
  2
*D37
 10
862.0
 20
884.0
 30
0.0
 11
687.0
 21
901.5
 31
0.0
 70
    32
 71
     5
 42
-1.0
  3
Standard
100
AcDbAlignedDimension
 13
512.0
 23
1011.0
 33
0.0
 14
862.0
 24
1011.0
 34
0.0
100
AcDbRotatedDimension
1001
ACAD
1000
DSTYLE
1002
{
1070
   344
1005
30
1070
   343
1005
30
1070
    41
1040
21.0
1070
    42
1040
3.5
1070
    44
1040
3.5
1070
    73
1070
     0
1070
    74
1070
     0
1070
    75
1070
     0
1070
    76
1070
     0
1070
    77
1070
     1
1070
    78
1070
     8
1070
   140
1040
27.999998
1070
   147
1040
3.5
1070
   173
1070
     1
1070
   176
1070
     1
1070
   177
1070
     1
1070
   178
1070
     1
1070
   271
1070
     2
1070
   279
1070
     2
1070
   280
1070
     0
1070
   340
1005
2BB
1002
}
  0
TEXT
  5
3CE
330
1F
100
AcDbEntity
  8
文字
  6
Continuous
 62
     3
100
AcDbText
 10
508.2
 20
464.1
 30
0.0
 40
26.25
  1
スライド下部詳細（２：１）
 41
0.8
  7
EXCADTTF1
 72
     5
 11
872.2
 21
464.1
 31
0.0
100
AcDbText
  0
LINE
  5
3CF
330
1F
100
AcDbEntity
  8
文字
  6
Continuous
 62
     3
100
AcDbLine
 10
508.2
 20
464.1
 30
0.0
 11
857.5
 21
464.1
 31
0.0
  0
LINE
  5
3D0
330
1F
100
AcDbEntity
  8
図面枠
  6
Continuous
 62
     2
100
AcDbLine
 10
1617.0
 20
63.0
 30
0.0
 11
1617.0
 21
238.0
 31
0.0
  0
LINE
  5
3D1
330
1F
100
AcDbEntity
  8
図面枠
  6
Continuous
 62
     2
100
AcDbLine
 10
357.0
 20
238.0
 30
0.0
 11
357.0
 21
63.0
 31
0.0
  0
LINE
  5
3D2
330
1F
100
AcDbEntity
  8
図面枠
  6
Continuous
 62
     2
100
AcDbLine
 10
357.0
 20
238.0
 30
0.0
 11
1617.0
 21
238.0
 31
0.0
  0
LINE
  5
3D3
330
1F
100
AcDbEntity
  8
図面枠
  6
Continuous
 62
     2
100
AcDbLine
 10
2373.0
 20
63.0
 30
0.0
 11
2373.0
 21
427.0
 31
0.0
  0
LWPOLYLINE
  5
3D4
330
1F
100
AcDbEntity
  8
図面枠
  6
Continuous
 62
     2
100
AcDbPolyline
 90
        3
 70
   128
 43
0.0
 10
1617.0
 20
154.0
 10
1974.0
 20
154.0
 10
1974.0
 20
427.0
  0
LINE
  5
3D9
330
1F
100
AcDbEntity
  8
図面枠
  6
Continuous
 62
     2
100
AcDbLine
 10
1974.0
 20
154.0
 30
0.0
 11
1974.0
 21
63.0
 31
0.0
  0
LINE
  5
3DA
330
1F
100
AcDbEntity
  8
図面枠
  6
Continuous
 62
     2
100
AcDbLine
 10
2149.0
 20
427.0
 30
0.0
 11
2149.0
 21
63.0
 31
0.0
  0
LINE
  5
3DB
330
1F
100
AcDbEntity
  8
図面枠
  6
Continuous
 62
     2
100
AcDbLine
 10
2324.0
 20
427.0
 30
0.0
 11
2324.0
 21
63.0
 31
0.0
  0
LINE
  5
3DC
330
1F
100
AcDbEntity
  8
図面枠
  6
Continuous
 62
     2
100
AcDbLine
 10
1974.0
 20
336.0
 30
0.0
 11
2324.0
 21
336.0
 31
0.0
  0
LINE
  5
3DD
330
1F
100
AcDbEntity
  8
図面枠
  6
Continuous
 62
     2
100
AcDbLine
 10
1974.0
 20
245.0
 30
0.0
 11
2324.0
 21
245.0
 31
0.0
  0
LINE
  5
3DE
330
1F
100
AcDbEntity
  8
図面枠
  6
Continuous
 62
     2
100
AcDbLine
 10
1974.0
 20
154.0
 30
0.0
 11
2324.0
 21
154.0
 31
0.0
  0
LINE
  5
3DF
330
1F
100
AcDbEntity
  8
図面枠
  6
Continuous
 62
     2
100
AcDbLine
 10
1617.0
 20
336.0
 30
0.0
 11
2324.0
 21
336.0
 31
0.0
  0
LINE
  5
3E0
330
1F
100
AcDbEntity
  8
図面枠
  6
Continuous
 62
     2
100
AcDbLine
 10
2324.0
 20
427.0
 30
0.0
 11
2324.0
 21
63.0
 31
0.0
  0
LINE
  5
3E1
330
1F
100
AcDbEntity
  8
図面枠
  6
Continuous
 62
     2
100
AcDbLine
 10
2149.0
 20
427.0
 30
0.0
 11
2149.0
 21
63.0
 31
0.0
  0
LINE
  5
3E2
330
1F
100
AcDbEntity
  8
図面枠
  6
Continuous
 62
     2
100
AcDbLine
 10
1974.0
 20
427.0
 30
0.0
 11
1974.0
 21
63.0
 31
0.0
  0
LINE
  5
3E3
330
1F
100
AcDbEntity
  8
図面枠
  6
Continuous
 62
     2
100
AcDbLine
 10
1799.0
 20
427.0
 30
0.0
 11
1799.0
 21
63.0
 31
0.0
  0
LINE
  5
3E4
330
1F
100
AcDbEntity
  8
図面枠
  6
Continuous
 62
     2
100
AcDbLine
 10
2814.0
 20
63.0
 30
0.0
 11
2814.0
 21
2023.0
 31
0.0
  0
LINE
  5
3E5
330
1F
100
AcDbEntity
  8
図面枠
  6
Continuous
 62
     2
100
AcDbLine
 10
2814.0
 20
63.0
 30
0.0
 11
2373.0
 21
63.0
 31
0.0
  0
LINE
  5
3E6
330
1F
100
AcDbEntity
  8
図面枠
  6
Continuous
 62
     2
100
AcDbLine
 10
119.0
 20
63.0
 30
0.0
 11
2814.0
 21
63.0
 31
0.0
  0
LINE
  5
3E7
330
1F
100
AcDbEntity
  8
図面枠
  6
Continuous
 62
     2
100
AcDbLine
 10
2324.0
 20
154.0
 30
0.0
 11
2814.0
 21
154.0
 31
0.0
  0
LINE
  5
3E8
330
1F
100
AcDbEntity
  8
図面枠
  6
Continuous
 62
     2
100
AcDbLine
 10
2324.0
 20
245.0
 30
0.0
 11
2814.0
 21
245.0
 31
0.0
  0
LINE
  5
3E9
330
1F
100
AcDbEntity
  8
図面枠
  6
Continuous
 62
     2
100
AcDbLine
 10
2373.0
 20
336.0
 30
0.0
 11
2814.0
 21
336.0
 31
0.0
  0
LINE
  5
3EA
330
1F
100
AcDbEntity
  8
図面枠
  6
Continuous
 62
     2
100
AcDbLine
 10
1799.0
 20
427.0
 30
0.0
 11
2814.0
 21
427.0
 31
0.0
  0
LWPOLYLINE
  5
3EB
330
1F
100
AcDbEntity
  8
図面枠
  6
Continuous
 62
     2
100
AcDbPolyline
 90
        3
 70
   128
 43
0.0
 10
2814.0
 20
483.0
 10
1617.0
 20
483.0
 10
1617.0
 20
63.0
  0
LINE
  5
3F0
330
1F
100
AcDbEntity
  8
図面枠
  6
Continuous
 62
     2
100
AcDbLine
 10
1617.0
 20
154.0
 30
0.0
 11
2814.0
 21
154.0
 31
0.0
  0
LINE
  5
3F1
330
1F
100
AcDbEntity
  8
図面枠
  6
Continuous
 62
     2
100
AcDbLine
 10
1617.0
 20
245.0
 30
0.0
 11
2814.0
 21
245.0
 31
0.0
  0
LINE
  5
3F2
330
1F
100
AcDbEntity
  8
図面枠
  6
Continuous
 62
     2
100
AcDbLine
 10
2373.0
 20
336.0
 30
0.0
 11
2814.0
 21
336.0
 31
0.0
  0
LINE
  5
3F3
330
1F
100
AcDbEntity
  8
図面枠
  6
Continuous
 62
     2
100
AcDbLine
 10
1617.0
 20
427.0
 30
0.0
 11
2814.0
 21
427.0
 31
0.0
  0
LINE
  5
3F4
330
1F
100
AcDbEntity
  8
図面枠
  6
Continuous
 62
     2
100
AcDbLine
 10
2814.0
 20
2023.0
 30
0.0
 11
119.0
 21
2023.0
 31
0.0
  0
LINE
  5
3F5
330
1F
100
AcDbEntity
  8
図面枠
  6
Continuous
 62
     2
100
AcDbLine
 10
119.0
 20
2023.0
 30
0.0
 11
119.0
 21
63.0
 31
0.0
  0
CIRCLE
  5
3F6
330
1F
100
AcDbEntity
  8
作図線（細線）
  6
Continuous
 62
     3
100
AcDbCircle
 10
667.0
 20
1109.0
 30
0.0
 40
5.0
  0
CIRCLE
  5
3F7
330
1F
100
AcDbEntity
  8
作図線（細線）
  6
Continuous
 62
     3
100
AcDbCircle
 10
707.0
 20
1109.0
 30
0.0
 40
5.0
  0
CIRCLE
  5
3F8
330
1F
100
AcDbEntity
  8
作図線（細線）
  6
Continuous
 62
     3
100
AcDbCircle
 10
597.0
 20
1116.0
 30
0.0
 40
5.0
  0
CIRCLE
  5
3F9
330
1F
100
AcDbEntity
  8
作図線（細線）
  6
Continuous
 62
     3
100
AcDbCircle
 10
777.0
 20
1116.0
 30
0.0
 40
5.0
  0
CIRCLE
  5
3FA
330
1F
100
AcDbEntity
  8
作図線（細線）
  6
Continuous
 62
     3
100
AcDbCircle
 10
597.0
 20
1196.0
 30
0.0
 40
5.0
  0
CIRCLE
  5
3FB
330
1F
100
AcDbEntity
  8
作図線（細線）
  6
Continuous
 62
     3
100
AcDbCircle
 10
777.0
 20
1196.0
 30
0.0
 40
5.0
  0
CIRCLE
  5
3FC
330
1F
100
AcDbEntity
  8
作図線（細線）
  6
Continuous
 62
     3
100
AcDbCircle
 10
597.0
 20
1276.0
 30
0.0
 40
5.0
  0
CIRCLE
  5
3FD
330
1F
100
AcDbEntity
  8
作図線（細線）
  6
Continuous
 62
     3
100
AcDbCircle
 10
777.0
 20
1276.0
 30
0.0
 40
5.0
  0
LINE
  5
3FE
330
1F
100
AcDbEntity
  8
作図線（細線）
  6
Continuous
 62
     3
100
AcDbLine
 10
703.5
 20
1216.0
 30
0.0
 11
703.5
 21
1220.0
 31
0.0
  0
LINE
  5
3FF
330
1F
100
AcDbEntity
  8
作図線（細線）
  6
Continuous
 62
     3
100
AcDbLine
 10
670.5
 20
1216.0
 30
0.0
 11
670.5
 21
1220.0
 31
0.0
  0
CIRCLE
  5
400
330
1F
100
AcDbEntity
  8
作図線（細線）
  6
Continuous
 62
     3
100
AcDbCircle
 10
778.0
 20
1349.5
 30
0.0
 40
2.5
  0
CIRCLE
  5
401
330
1F
100
AcDbEntity
  8
作図線（細線）
  6
EXLTYPE4
 62
     3
100
AcDbCircle
 10
627.0
 20
1740.522718
 30
0.0
 40
15.0
  0
CIRCLE
  5
402
330
1F
100
AcDbEntity
  8
作図線（細線）
  6
EXLTYPE4
 62
     3
100
AcDbCircle
 10
747.0
 20
1740.522718
 30
0.0
 40
15.0
  0
LINE
  5
403
330
1F
100
AcDbEntity
  8
中心線
  6
Continuous
 62
     4
100
AcDbLine
 10
1133.0
 20
1175.790369
 30
0.0
 11
1133.0
 21
1166.209631
 31
0.0
  0
LINE
  5
404
330
1F
100
AcDbEntity
  8
中心線
  6
Continuous
 62
     3
100
AcDbLine
 10
1128.947664
 20
1175.00137
 30
0.0
 11
1137.947664
 21
1174.5297
 31
0.0
  0
LINE
  5
405
330
1F
100
AcDbEntity
  8
中心線
  6
Continuous
 62
     3
100
AcDbLine
 10
1128.947664
 20
1166.99863
 30
0.0
 11
1137.947664
 21
1167.4703
 31
0.0
  0
LINE
  5
406
330
1F
100
AcDbEntity
  8
中心線
  6
EXLTYPE3
 62
     3
100
AcDbLine
 10
1080.8
 20
1526.0
 30
0.0
 11
1134.0
 21
1526.0
 31
0.0
  0
LINE
  5
407
330
1F
100
AcDbEntity
  8
中心線
  6
EXLTYPE3
 62
     3
100
AcDbLine
 10
1209.0
 20
1109.0
 30
0.0
 11
1117.297647
 21
1109.0
 31
0.0
  0
LINE
  5
408
330
1F
100
AcDbEntity
  8
中心線
  6
EXLTYPE3
 62
     3
100
AcDbLine
 10
1195.0
 20
1174.0
 30
0.0
 11
1143.0
 21
1174.0
 31
0.0
  0
LINE
  5
409
330
1F
100
AcDbEntity
  8
中心線
  6
EXLTYPE3
 62
     3
100
AcDbLine
 10
717.0
 20
1240.0
 30
0.0
 11
657.0
 21
1240.0
 31
0.0
  0
LINE
  5
40A
330
1F
100
AcDbEntity
  8
中心線
  6
EXLTYPE3
 62
     3
100
AcDbLine
 10
667.0
 20
1230.0
 30
0.0
 11
667.0
 21
1250.0
 31
0.0
  0
LINE
  5
40B
330
1F
100
AcDbEntity
  8
中心線
  6
EXLTYPE3
 62
     3
100
AcDbLine
 10
707.0
 20
1230.0
 30
0.0
 11
707.0
 21
1250.0
 31
0.0
  0
LINE
  5
40C
330
1F
100
AcDbEntity
  8
中心線
  6
EXLTYPE3
 62
     3
100
AcDbLine
 10
668.0
 20
1361.0
 30
0.0
 11
668.0
 21
1375.0
 31
0.0
  0
LINE
  5
40D
330
1F
100
AcDbEntity
  8
中心線
  6
EXLTYPE3
 62
     3
100
AcDbLine
 10
706.0
 20
1361.0
 30
0.0
 11
706.0
 21
1375.0
 31
0.0
  0
LINE
  5
40E
330
1F
100
AcDbEntity
  8
中心線
  6
EXLTYPE3
 62
     3
100
AcDbLine
 10
707.0
 20
1348.0
 30
0.0
 11
667.0
 21
1348.0
 31
0.0
  0
LINE
  5
40F
330
1F
100
AcDbEntity
  8
中心線
  6
EXLTYPE3
 62
     3
100
AcDbLine
 10
597.0
 20
1089.0
 30
0.0
 11
597.0
 21
1309.0
 31
0.0
  0
LINE
  5
410
330
1F
100
AcDbEntity
  8
中心線
  6
EXLTYPE3
 62
     3
100
AcDbLine
 10
777.0
 20
1089.0
 30
0.0
 11
777.0
 21
1309.0
 31
0.0
  0
LINE
  5
411
330
1F
100
AcDbEntity
  8
中心線
  6
EXLTYPE3
 62
     3
100
AcDbLine
 10
667.0
 20
1098.3
 30
0.0
 11
667.0
 21
1118.6
 31
0.0
  0
LINE
  5
412
330
1F
100
AcDbEntity
  8
中心線
  6
EXLTYPE3
 62
     3
100
AcDbLine
 10
707.0
 20
1098.3
 30
0.0
 11
707.0
 21
1118.6
 31
0.0
  0
LINE
  5
413
330
1F
100
AcDbEntity
  8
中心線
  6
EXLTYPE3
 62
     3
100
AcDbLine
 10
714.1
 20
1109.0
 30
0.0
 11
658.7
 21
1109.0
 31
0.0
  0
LINE
  5
414
330
1F
100
AcDbEntity
  8
中心線
  6
EXLTYPE3
 62
     3
100
AcDbLine
 10
752.0
 20
1084.4
 30
0.0
 11
752.0
 21
1092.5
 31
0.0
  0
LINE
  5
415
330
1F
100
AcDbEntity
  8
中心線
  6
EXLTYPE3
 62
     3
100
AcDbLine
 10
622.0
 20
1084.4
 30
0.0
 11
622.0
 21
1092.5
 31
0.0
  0
LINE
  5
416
330
1F
100
AcDbEntity
  8
中心線
  6
EXLTYPE3
 62
     3
100
AcDbLine
 10
767.0
 20
1276.0
 30
0.0
 11
787.0
 21
1276.0
 31
0.0
  0
LINE
  5
417
330
1F
100
AcDbEntity
  8
中心線
  6
EXLTYPE3
 62
     3
100
AcDbLine
 10
767.0
 20
1196.0
 30
0.0
 11
782.0
 21
1196.0
 31
0.0
  0
LINE
  5
418
330
1F
100
AcDbEntity
  8
中心線
  6
EXLTYPE3
 62
     3
100
AcDbLine
 10
767.0
 20
1116.0
 30
0.0
 11
789.0
 21
1116.0
 31
0.0
  0
LINE
  5
419
330
1F
100
AcDbEntity
  8
中心線
  6
EXLTYPE3
 62
     3
100
AcDbLine
 10
607.0
 20
1276.0
 30
0.0
 11
587.0
 21
1276.0
 31
0.0
  0
LINE
  5
41A
330
1F
100
AcDbEntity
  8
中心線
  6
EXLTYPE3
 62
     3
100
AcDbLine
 10
607.0
 20
1196.0
 30
0.0
 11
592.0
 21
1196.0
 31
0.0
  0
LINE
  5
41B
330
1F
100
AcDbEntity
  8
中心線
  6
EXLTYPE3
 62
     3
100
AcDbLine
 10
607.0
 20
1116.0
 30
0.0
 11
585.0
 21
1116.0
 31
0.0
  0
LINE
  5
41C
330
1F
100
AcDbEntity
  8
中心線
  6
EXLTYPE3
 62
     3
100
AcDbLine
 10
752.0
 20
1236.0
 30
0.0
 11
798.0
 21
1236.0
 31
0.0
  0
LINE
  5
41D
330
1F
100
AcDbEntity
  8
中心線
  6
EXLTYPE3
 62
     3
100
AcDbLine
 10
622.0
 20
1236.0
 30
0.0
 11
576.0
 21
1236.0
 31
0.0
  0
LINE
  5
41E
330
1F
100
AcDbEntity
  8
中心線
  6
EXLTYPE3
 62
     3
100
AcDbLine
 10
1088.597647
 20
1618.5
 30
0.0
 11
1154.697647
 21
1618.5
 31
0.0
  0
LINE
  5
41F
330
1F
100
AcDbEntity
  8
中心線
  6
EXLTYPE3
 62
     3
100
AcDbLine
 10
687.0
 20
1189.0
 30
0.0
 11
687.0
 21
1737.0
 31
0.0
  0
LINE
  5
420
330
1F
100
AcDbEntity
  8
中心線
  6
EXLTYPE3
 62
     3
100
AcDbLine
 10
627.0
 20
1740.522718
 30
0.0
 11
771.0
 21
1740.522718
 31
0.0
  0
LINE
  5
421
330
1F
100
AcDbEntity
  8
中心線
  6
EXLTYPE3
 62
     3
100
AcDbLine
 10
627.0
 20
1716.0
 30
0.0
 11
627.0
 21
1766.0
 31
0.0
  0
LINE
  5
422
330
1F
100
AcDbEntity
  8
中心線
  6
EXLTYPE3
 62
     3
100
AcDbLine
 10
747.0
 20
1716.0
 30
0.0
 11
747.0
 21
1766.0
 31
0.0
  0
LINE
  5
423
330
1F
100
AcDbEntity
  8
中心線
  6
EXLTYPE3
 62
     3
100
AcDbLine
 10
734.0
 20
1626.0
 30
0.0
 11
648.0
 21
1626.0
 31
0.0
  0
LINE
  5
424
330
1F
100
AcDbEntity
  8
中心線
  6
EXLTYPE3
 62
     3
100
AcDbLine
 10
627.0
 20
1513.0
 30
0.0
 11
627.0
 21
1545.591685
 31
0.0
  0
LINE
  5
425
330
1F
100
AcDbEntity
  8
中心線
  6
EXLTYPE3
 62
     3
100
AcDbLine
 10
687.0
 20
1513.0
 30
0.0
 11
687.0
 21
1526.150421
 31
0.0
  0
LINE
  5
426
330
1F
100
AcDbEntity
  8
中心線
  6
EXLTYPE3
 62
     3
100
AcDbLine
 10
687.0
 20
1510.0
 30
0.0
 11
687.0
 21
1535.0
 31
0.0
  0
LINE
  5
427
330
1F
100
AcDbEntity
  8
中心線
  6
EXLTYPE3
 62
     3
100
AcDbLine
 10
747.0
 20
1513.0
 30
0.0
 11
747.0
 21
1545.591685
 31
0.0
  0
LINE
  5
428
330
1F
100
AcDbEntity
  8
中心線
  6
EXLTYPE3
 62
     3
100
AcDbLine
 10
770.0
 20
1526.0
 30
0.0
 11
601.0
 21
1526.0
 31
0.0
  0
LINE
  5
429
330
1F
100
AcDbEntity
  8
中心線
  6
EXLTYPE3
 62
     3
100
AcDbLine
 10
1250.0
 20
702.0
 30
0.0
 11
1649.0
 21
702.0
 31
0.0
  0
LINE
  5
42A
330
1F
100
AcDbEntity
  8
中心線
  6
EXLTYPE3
 62
     3
100
AcDbLine
 10
1250.0
 20
642.0
 30
0.0
 11
1357.0
 21
642.0
 31
0.0
  0
LINE
  5
42B
330
1F
100
AcDbEntity
  8
中心線
  6
EXLTYPE3
 62
     3
100
AcDbLine
 10
1250.0
 20
762.0
 30
0.0
 11
1351.0
 21
762.0
 31
0.0
  0
LINE
  5
42C
330
1F
100
AcDbEntity
  8
中心線
  6
EXLTYPE3
 62
     3
100
AcDbLine
 10
1250.0
 20
547.0
 30
0.0
 11
1609.0
 21
547.0
 31
0.0
  0
LINE
  5
42D
330
1F
100
AcDbEntity
  8
中心線
  6
EXLTYPE3
 62
     3
100
AcDbLine
 10
1250.0
 20
857.0
 30
0.0
 11
1611.0
 21
857.0
 31
0.0
  0
LINE
  5
42E
330
1F
100
AcDbEntity
  8
中心線
  6
EXLTYPE3
 62
     3
100
AcDbLine
 10
687.0
 20
1089.0
 30
0.0
 11
687.0
 21
1181.2
 31
0.0
  0
LINE
  5
42F
330
1F
100
AcDbEntity
  8
中心線
  6
EXLTYPE3
 62
     3
100
AcDbLine
 10
1169.0
 20
1093.0
 30
0.0
 11
1169.0
 21
1039.0
 31
0.0
  0
LINE
  5
430
330
1F
100
AcDbEntity
  8
中心線
  6
EXLTYPE3
 62
     3
100
AcDbLine
 10
2203.0
 20
1011.0
 30
0.0
 11
2203.0
 21
1564.0
 31
0.0
  0
LINE
  5
431
330
1F
100
AcDbEntity
  8
中心線
  6
EXLTYPE3
 62
     3
100
AcDbLine
 10
842.0
 20
988.0
 30
0.0
 11
842.0
 21
1041.0
 31
0.0
  0
LINE
  5
432
330
1F
100
AcDbEntity
  8
中心線
  6
EXLTYPE3
 62
     3
100
AcDbLine
 10
687.0
 20
939.0
 30
0.0
 11
687.0
 21
1089.0
 31
0.0
  0
LINE
  5
433
330
1F
100
AcDbEntity
  8
中心線
  6
EXLTYPE3
 62
     3
100
AcDbLine
 10
842.0
 20
1002.0
 30
0.0
 11
842.0
 21
1059.0
 31
0.0
  0
LINE
  5
434
330
1F
100
AcDbEntity
  8
中心線
  6
EXLTYPE4
 62
     3
100
AcDbLine
 10
1169.0
 20
1093.0
 30
0.0
 11
1169.0
 21
1293.0
 31
0.0
  0
LINE
  5
435
330
1F
100
AcDbEntity
  8
中心線
  6
EXLTYPE4
 62
     3
100
AcDbLine
 10
557.0
 20
1463.0
 30
0.0
 11
817.0
 21
1463.0
 31
0.0
  0
LINE
  5
436
330
1F
100
AcDbEntity
  8
中心線
  6
EXLTYPE4
 62
     3
100
AcDbLine
 10
752.0
 20
1096.0
 30
0.0
 11
730.3
 21
1096.0
 31
0.0
  0
LINE
  5
437
330
1F
100
AcDbEntity
  8
中心線
  6
EXLTYPE4
 62
     3
100
AcDbLine
 10
597.0
 20
1752.0
 30
0.0
 11
597.0
 21
1470.0
 31
0.0
  0
LINE
  5
438
330
1F
100
AcDbEntity
  8
中心線
  6
EXLTYPE4
 62
     3
100
AcDbLine
 10
777.0
 20
1752.0
 30
0.0
 11
777.0
 21
1470.0
 31
0.0
  0
LWPOLYLINE
  5
439
330
1F
100
AcDbEntity
  8
中心線
  6
EXLTYPE4
 62
     3
100
AcDbPolyline
 90
       34
 70
   128
 43
0.0
 10
820.8
 20
1059.3
 10
820.685996
 20
1059.022519
 10
820.37008
 20
1058.235945
 10
819.891399
 20
1057.009081
 10
819.2891
 20
1055.410728
 10
818.602329
 20
1053.50969
 10
817.870233
 20
1051.374768
 10
817.131958
 20
1049.074766
 10
816.426651
 20
1046.678485
 10
815.793458
 20
1044.254729
 10
815.271525
 20
1041.8723
 10
814.9
 20
1039.6
 10
814.690239
 20
1037.06248
 10
814.725466
 20
1034.738713
 10
814.971942
 20
1032.579343
 10
815.395928
 20
1030.535015
 10
815.963684
 20
1028.556373
 10
816.641472
 20
1026.59406
 10
817.395551
 20
1024.598723
 10
818.192183
 20
1022.521004
 10
818.997628
 20
1020.311547
 10
819.778147
 20
1017.920998
 10
820.5
 20
1015.3
 10
821.01448
 20
1013.025925
 10
821.471837
 20
1010.642395
 10
821.873784
 20
1008.218106
 10
822.222033
 20
1005.821754
 10
822.518295
 20
1003.522036
 10
822.764281
 20
1001.387647
 10
822.961705
 20
999.487284
 10
823.112277
 20
997.889641
 10
823.217709
 20
996.663416
 10
823.279712
 20
995.877303
 10
823.3
 20
995.6
  0
TEXT
  5
45D
330
1F
100
AcDbEntity
  8
中心線
  6
Continuous
 62
     3
100
AcDbText
 10
2488.0
 20
269.0
 30
0.0
 40
26.25
  1
HMS-7000
 41
0.8
  7
EXCADTTF1
 72
     5
 11
2600.0
 21
269.0
 31
0.0
100
AcDbText
  0
TEXT
  5
45E
330
1F
100
AcDbEntity
  8
中心線
  6
Continuous
 62
     3
100
AcDbText
 10
2488.0
 20
179.0
 30
0.0
 40
26.25
  1
全体図
 41
0.8
  7
EXCADTTF1
 72
     5
 11
2572.0
 21
179.0
 31
0.0
100
AcDbText
  0
TEXT
  5
45F
330
1F
100
AcDbEntity
  8
中心線
  6
Continuous
 62
     3
100
AcDbText
 10
2205.0
 20
361.0
 30
0.0
 40
26.25
  1
1:7
 41
0.8
  7
EXCADTTF1
 72
     5
 11
2247.0
 21
361.0
 31
0.0
100
AcDbText
  0
TEXT
  5
460
330
1F
100
AcDbEntity
  8
中心線
  6
Continuous
 62
     3
100
AcDbText
 10
1974.0
 20
90.0
 30
0.0
 40
26.25
  1
K.hashimoto
 41
0.8
  7
EXCADTTF1
 72
     5
 11
2128.0
 21
90.0
 31
0.0
100
AcDbText
  0
LINE
  5
461
330
1F
100
AcDbEntity
  8
中心線
  6
EXLTYPE4
 62
     3
100
AcDbLine
 10
693.98
 20
1171.0
 30
0.0
 11
677.6
 21
1171.0
 31
0.0
  0
LINE
  5
462
330
1F
100
AcDbEntity
  8
中心線
  6
EXLTYPE3
 62
     3
100
AcDbLine
 10
2235.8
 20
1216.0
 30
0.0
 11
2165.784781
 21
1216.0
 31
0.0
  0
LINE
  5
463
330
1F
100
AcDbEntity
  8
中心線
  6
EXLTYPE3
 62
     3
100
AcDbLine
 10
722.4
 20
1368.0
 30
0.0
 11
644.0
 21
1368.0
 31
0.0
  0
LINE
  5
464
330
1F
100
AcDbEntity
  8
中心線
  6
EXLTYPE3
 62
     3
100
AcDbLine
 10
787.0
 20
1476.0
 30
0.0
 11
787.0
 21
1294.8
 31
0.0
  0
LINE
  5
465
330
1F
100
AcDbEntity
  8
中心線
  6
EXLTYPE3
 62
     3
100
AcDbLine
 10
778.0
 20
1357.5
 30
0.0
 11
778.0
 21
1341.5
 31
0.0
  0
LINE
  5
466
330
1F
100
AcDbEntity
  8
中心線
  6
EXLTYPE3
 62
     3
100
AcDbLine
 10
772.0
 20
1349.5
 30
0.0
 11
783.0
 21
1349.5
 31
0.0
  0
LINE
  5
467
330
1F
100
AcDbEntity
  8
中心線
  6
Continuous
 62
     3
100
AcDbLine
 10
791.0
 20
1349.5
 30
0.0
 11
809.0
 21
1349.5
 31
0.0
  0
LINE
  5
468
330
1F
100
AcDbEntity
  8
中心線
  6
EXLTYPE3
 62
     3
100
AcDbLine
 10
802.0
 20
1377.7
 30
0.0
 11
802.0
 21
1331.2
 31
0.0
  0
LINE
  5
469
330
1F
100
AcDbEntity
  8
中心線
  6
EXLTYPE3
 62
     3
100
AcDbLine
 10
800.0
 20
1334.5
 30
0.0
 11
822.0
 21
1334.5
 31
0.0
  0
LINE
  5
46A
330
1F
100
AcDbEntity
  8
中心線
  6
EXLTYPE3
 62
     3
100
AcDbLine
 10
802.0
 20
1331.2
 30
0.0
 11
802.0
 21
1320.3
 31
0.0
  0
LINE
  5
46B
330
1F
100
AcDbEntity
  8
中心線
  6
EXLTYPE3
 62
     3
100
AcDbLine
 10
802.0
 20
1313.3
 30
0.0
 11
802.0
 21
1208.2
 31
0.0
  0
LINE
  5
46C
330
1F
100
AcDbEntity
  8
中心線
  6
EXLTYPE3
 62
     3
100
AcDbLine
 10
852.0
 20
1428.8
 30
0.0
 11
852.0
 21
1313.6
 31
0.0
  0
LINE
  5
46D
330
1F
100
AcDbEntity
  8
中心線
  6
EXLTYPE3
 62
     3
100
AcDbLine
 10
814.0
 20
1379.0
 30
0.0
 11
902.5
 21
1379.0
 31
0.0
  0
LINE
  5
46E
330
1F
100
AcDbEntity
  8
中心線
  6
EXLTYPE3
 62
     3
100
AcDbLine
 10
1129.0
 20
1171.0
 30
0.0
 11
1111.5
 21
1171.0
 31
0.0
  0
LINE
  5
46F
330
1F
100
AcDbEntity
  8
中心線
  6
EXLTYPE3
 62
     3
100
AcDbLine
 10
1149.100251
 20
1171.0
 30
0.0
 11
1133.0
 21
1171.0
 31
0.0
  0
LINE
  5
470
330
1F
100
AcDbEntity
  8
中心線
  6
EXLTYPE3
 62
     3
100
AcDbLine
 10
687.0
 20
1189.0
 30
0.0
 11
687.0
 21
1784.3
 31
0.0
  0
LINE
  5
471
330
1F
100
AcDbEntity
  8
中心線
  6
EXLTYPE3
 62
     3
100
AcDbLine
 10
1647.0
 20
1656.0
 30
0.0
 11
1778.7
 21
1656.0
 31
0.0
  0
LINE
  5
472
330
1F
100
AcDbEntity
  8
中心線
  6
EXLTYPE3
 62
     3
100
AcDbLine
 10
1710.6
 20
1710.0
 30
0.0
 11
1710.6
 21
1598.9
 31
0.0
  0
LINE
  5
473
330
1F
100
AcDbEntity
  8
中心線
  6
EXLTYPE3
 62
     3
100
AcDbLine
 10
1669.35
 20
1705.0
 30
0.0
 11
1669.35
 21
1602.6
 31
0.0
  0
LINE
  5
474
330
1F
100
AcDbEntity
  8
中心線
  6
EXLTYPE3
 62
     3
100
AcDbLine
 10
1667.1
 20
1697.25
 30
0.0
 11
1766.5
 21
1697.25
 31
0.0
  0
LINE
  5
475
330
1F
100
AcDbEntity
  8
中心線
  6
EXLTYPE3
 62
     3
100
AcDbLine
 10
1751.85
 20
1704.1
 30
0.0
 11
1751.85
 21
1597.7
 31
0.0
  0
LINE
  5
476
330
1F
100
AcDbEntity
  8
中心線
  6
EXLTYPE3
 62
     3
100
AcDbLine
 10
1667.1
 20
1614.75
 30
0.0
 11
1766.5
 21
1614.75
 31
0.0
  0
TEXT
  5
477
330
1F
100
AcDbEntity
  8
中心線
  6
Continuous
 62
     3
100
AcDbText
 10
2188.0
 20
87.0
 30
0.0
 40
26.25
  1
2010.9
 41
0.8
  7
EXCADTTF1
 72
     5
 11
2272.0
 21
87.0
 31
0.0
100
AcDbText
  0
LINE
  5
478
330
1F
100
AcDbEntity
  8
中心線
  6
EXLTYPE3
 62
     3
100
AcDbLine
 10
532.0
 20
986.0
 30
0.0
 11
532.0
 21
1059.1
 31
0.0
  0
LINE
  5
479
330
1F
100
AcDbEntity
  8
中心線
  6
EXLTYPE3
 62
     3
100
AcDbLine
 10
627.0
 20
988.0
 30
0.0
 11
627.0
 21
1060.5
 31
0.0
  0
LINE
  5
47A
330
1F
100
AcDbEntity
  8
中心線
  6
EXLTYPE3
 62
     3
100
AcDbLine
 10
747.0
 20
984.0
 30
0.0
 11
747.0
 21
1058.4
 31
0.0
  0
LINE
  5
47B
330
1F
100
AcDbEntity
  8
中心線
  6
EXLTYPE3
 62
     3
100
AcDbLine
 10
1374.0
 20
772.1
 30
0.0
 11
1374.0
 21
626.5
 31
0.0
  0
LINE
  5
47C
330
1F
100
AcDbEntity
  8
中心線
  6
EXLTYPE3
 62
     3
100
AcDbLine
 10
1434.0
 20
893.2
 30
0.0
 11
1434.0
 21
527.0
 31
0.0
  0
LINE
  5
47D
330
1F
100
AcDbEntity
  8
中心線
  6
EXLTYPE3
 62
     3
100
AcDbLine
 10
1314.0
 20
891.8
 30
0.0
 11
1314.0
 21
527.0
 31
0.0
  0
LINE
  5
47E
330
1F
100
AcDbEntity
  8
中心線
  6
EXLTYPE3
 62
     3
100
AcDbLine
 10
1554.0
 20
892.5
 30
0.0
 11
1554.0
 21
527.0
 31
0.0
  0
LINE
  5
47F
330
1F
100
AcDbEntity
  8
中心線
  6
EXLTYPE3
 62
     3
100
AcDbLine
 10
1314.0
 20
991.2
 30
0.0
 11
1314.0
 21
1064.0
 31
0.0
  0
LINE
  5
480
330
1F
100
AcDbEntity
  8
中心線
  6
EXLTYPE3
 62
     3
100
AcDbLine
 10
1434.0
 20
989.8
 30
0.0
 11
1434.0
 21
1064.7
 31
0.0
  0
LINE
  5
481
330
1F
100
AcDbEntity
  8
中心線
  6
EXLTYPE3
 62
     3
100
AcDbLine
 10
1554.0
 20
991.2
 30
0.0
 11
1554.0
 21
1064.7
 31
0.0
  0
LWPOLYLINE
  5
482
330
1F
100
AcDbEntity
  8
想像線
  6
EXLTYPE4
 62
     3
100
AcDbPolyline
 90
       45
 70
   128
 43
0.0
 10
1046.5
 20
1256.5
 10
1047.435516
 20
1255.818769
 10
1050.10852
 20
1253.91798
 10
1054.318693
 20
1251.011993
 10
1059.865717
 20
1247.315166
 10
1066.549274
 20
1243.041858
 10
1074.169046
 20
1238.406429
 10
1082.524715
 20
1233.623235
 10
1091.415963
 20
1228.906637
 10
1100.642472
 20
1224.470992
 10
1110.003923
 20
1220.53066
 10
1119.3
 20
1217.3
 10
1129.712996
 20
1214.647091
 10
1139.771596
 20
1213.001125
 10
1149.47367
 20
1212.14392
 10
1158.817092
 20
1211.857295
 10
1167.799732
 20
1211.923071
 10
1176.419464
 20
1212.123065
 10
1184.674158
 20
1212.239099
 10
1192.561686
 20
1212.052989
 10
1200.079922
 20
1211.346557
 10
1207.226736
 20
1209.901621
 10
1214.0
 20
1207.5
 10
1218.650691
 20
1205.068029
 10
1223.099631
 20
1202.04257
 10
1227.340453
 20
1198.441159
 10
1231.366789
 20
1194.281333
 10
1235.172272
 20
1189.580629
 10
1238.750534
 20
1184.356582
 10
1242.095207
 20
1178.62673
 10
1245.199924
 20
1172.408609
 10
1248.058316
 20
1165.719756
 10
1250.664017
 20
1158.577707
 10
1253.010658
 20
1151.0
 10
1255.657395
 20
1140.631396
 10
1257.894014
 20
1129.857703
 10
1259.753818
 20
1118.972341
 10
1261.270106
 20
1108.268727
 10
1262.47618
 20
1098.040281
 10
1263.405341
 20
1088.580421
 10
1264.090888
 20
1080.182566
 10
1264.566124
 20
1073.140135
 10
1264.864348
 20
1067.746547
 10
1265.018862
 20
1064.295221
 10
1265.062967
 20
1063.079574
  0
CIRCLE
  5
4B1
330
1F
100
AcDbEntity
  8
想像線
  6
EXLTYPE3
 62
     3
100
AcDbCircle
 10
852.0
 20
1379.0
 30
0.0
 40
26.5
  0
ENDSEC
  0
SECTION
  2
OBJECTS
  0
DICTIONARY
  5
C
330
0
100
AcDbDictionary
281
     1
  3
ACAD_COLOR
350
6C
  3
ACAD_GROUP
350
D
  3
ACAD_LAYOUT
350
1A
  3
ACAD_MATERIAL
350
6B
  3
ACAD_MLEADERSTYLE
350
560
  3
ACAD_MLINESTYLE
350
17
  3
ACAD_PLOTSETTINGS
350
19
  3
ACAD_PLOTSTYLENAME
350
E
  3
ACAD_SCALELIST
350
99
  3
ACAD_TABLESTYLE
350
92
  3
ACDBHEADERROUNDTRIPXREC
350
563
  3
AcDbVariableDictionary
350
59
  3
DWGPROPS
350
566
  0
DICTIONARY
  5
55F
330
1F
100
AcDbDictionary
280
     1
281
     1
  0
DICTIONARY
  5
6C
102
{ACAD_REACTORS
330
C
102
}
330
C
100
AcDbDictionary
281
     1
  0
DICTIONARY
  5
D
102
{ACAD_REACTORS
330
C
102
}
330
C
100
AcDbDictionary
281
     1
  0
DICTIONARY
  5
1A
102
{ACAD_REACTORS
330
C
102
}
330
C
100
AcDbDictionary
281
     1
  3
Layout1
350
74
  3
Model
350
22
  0
DICTIONARY
  5
6B
102
{ACAD_REACTORS
330
C
102
}
330
C
100
AcDbDictionary
281
     1
  0
DICTIONARY
  5
560
102
{ACAD_REACTORS
330
C
102
}
330
C
100
AcDbDictionary
281
     1
  0
DICTIONARY
  5
17
102
{ACAD_REACTORS
330
C
102
}
330
C
100
AcDbDictionary
281
     1
  3
Standard
350
18
  0
DICTIONARY
  5
19
102
{ACAD_REACTORS
330
C
102
}
330
C
100
AcDbDictionary
281
     1
  0
ACDBDICTIONARYWDFLT
  5
E
102
{ACAD_REACTORS
330
C
102
}
330
C
100
AcDbDictionary
281
     1
  3
Normal
350
F
100
AcDbDictionaryWithDefault
340
F
  0
DICTIONARY
  5
99
102
{ACAD_REACTORS
330
C
102
}
330
C
100
AcDbDictionary
281
     1
  3
A0
350
4B6
  3
A1
350
4B7
  3
A2
350
4B8
  3
A3
350
4B9
  3
A4
350
4BA
  3
A5
350
4BB
  3
A6
350
4BC
  3
A7
350
4BD
  3
A8
350
4BE
  3
A9
350
4BF
  3
B0
350
4C0
  3
B1
350
4C1
  3
B2
350
4C2
  3
B3
350
4C3
  3
B4
350
4C4
  3
B5
350
4C5
  3
B6
350
4C6
  3
B7
350
4C7
  3
B8
350
4C8
  3
B9
350
4C9
  3
C0
350
4CA
  3
C1
350
4CB
  3
C2
350
4CC
  3
C3
350
4CD
  3
C4
350
4CE
  3
C5
350
4CF
  3
C6
350
4D0
  3
C7
350
4D1
  3
C8
350
4D2
  3
C9
350
4D3
  3
D0
350
4D4
  3
D1
350
4D5
  3
D2
350
4D6
  0
DICTIONARY
  5
92
102
{ACAD_REACTORS
330
C
102
}
330
C
100
AcDbDictionary
281
     1
  3
Standard
350
93
  0
DICTIONARY
  5
563
102
{ACAD_REACTORS
330
C
102
}
330
C
100
AcDbDictionary
281
     1
  3
COLORDICT
350
564
  3
MATERIALDICT
350
565
  0
DICTIONARY
  5
59
102
{ACAD_REACTORS
330
C
102
}
330
C
100
AcDbDictionary
281
     1
  3
CANNOSCALE
350
562
  3
CTABLESTYLE
350
98
  3
DIMASSOC
350
4DA
  3
HIDETEXT
350
5E
  3
XCLIPFRAME
350
561
  0
XRECORD
  5
566
102
{ACAD_REACTORS
330
C
102
}
330
C
100
AcDbXrecord
280
     1
  1
DWGPROPS COOKIE
  2

  3

  4

  6

  7

  8
Administrator
  9

300
=
301
=
302
=
303
=
304
=
305
=
306
=
307
=
308
=
309
=
 40
0.0
 41
2453353.717125822
 42
2455525.769865162
  1

 90
        0
  0
LAYOUT
  5
74
102
{ACAD_REACTORS
330
1A
102
}
330
1A
100
AcDbPlotSettings
  1

  2
none_device
  4
ISO_C5_(229.00_x_162.00_MM)
  6

 40
0.0
 41
0.0
 42
0.0
 43
0.0
 44
229.0
 45
162.0
 46
0.0
 47
0.0
 48
0.0
 49
0.0
140
0.0
141
0.0
142
1.0
143
1.0
 70
   688
 72
     0
 73
     0
 74
     5
  7

 75
    16
147
1.0
148
0.0
149
0.0
100
AcDbLayout
  1
Layout1
 70
     0
 71
     1
 10
0.0
 20
0.0
 11
0.0
 21
0.0
 12
0.0
 22
0.0
 32
0.0
 14
0.0
 24
0.0
 34
0.0
 15
0.0
 25
0.0
 35
0.0
146
0.0
 13
0.0
 23
0.0
 33
0.0
 16
1.0
 26
0.0
 36
0.0
 17
0.0
 27
1.0
 37
0.0
 76
     0
330
73
  0
LAYOUT
  5
22
102
{ACAD_REACTORS
330
1A
102
}
330
1A
100
AcDbPlotSettings
  1

  2
none_device
  4
ISO_C5_(229.00_x_162.00_MM)
  6

 40
0.0
 41
0.0
 42
0.0
 43
0.0
 44
229.0
 45
162.0
 46
0.0
 47
0.0
 48
0.0
 49
0.0
140
0.0
141
0.0
142
1.0
143
1.0
 70
 11952
 72
     0
 73
     0
 74
     0
  7

 75
    16
147
1.0
148
0.0
149
0.0
100
AcDbLayout
  1
Model
 70
     1
 71
     0
 10
0.0
 20
0.0
 11
420.0
 21
297.0
 12
0.0
 22
0.0
 32
0.0
 14
119.0
 24
63.0
 34
0.0
 15
2814.0
 25
2023.0
 35
0.0
146
0.0
 13
0.0
 23
0.0
 33
0.0
 16
1.0
 26
0.0
 36
0.0
 17
0.0
 27
1.0
 37
0.0
 76
     0
330
1F
331
97
  0
MLINESTYLE
  5
18
102
{ACAD_REACTORS
330
17
102
}
330
17
100
AcDbMlineStyle
  2
STANDARD
 70
     0
  3

 62
     0
 51
90.0
 52
90.0
 71
     2
 49
0.5
 62
   256
  6
BYLAYER
 49
-0.5
 62
   256
  6
BYLAYER
  0
ACDBPLACEHOLDER
  5
F
102
{ACAD_REACTORS
330
E
102
}
330
E
  0
SCALE
  5
4B6
102
{ACAD_REACTORS
330
99
102
}
330
99
100
AcDbScale
 70
     0
300
1:1
140
1.0
141
1.0
290
     1
  0
SCALE
  5
4B7
102
{ACAD_REACTORS
330
99
102
}
330
99
100
AcDbScale
 70
     0
300
1:2
140
1.0
141
2.0
290
     0
  0
SCALE
  5
4B8
102
{ACAD_REACTORS
330
99
102
}
330
99
100
AcDbScale
 70
     0
300
1:4
140
1.0
141
4.0
290
     0
  0
SCALE
  5
4B9
102
{ACAD_REACTORS
330
99
102
}
330
99
100
AcDbScale
 70
     0
300
1:5
140
1.0
141
5.0
290
     0
  0
SCALE
  5
4BA
102
{ACAD_REACTORS
330
99
102
}
330
99
100
AcDbScale
 70
     0
300
1:8
140
1.0
141
8.0
290
     0
  0
SCALE
  5
4BB
102
{ACAD_REACTORS
330
99
102
}
330
99
100
AcDbScale
 70
     0
300
1:10
140
1.0
141
10.0
290
     0
  0
SCALE
  5
4BC
102
{ACAD_REACTORS
330
99
102
}
330
99
100
AcDbScale
 70
     0
300
1:16
140
1.0
141
16.0
290
     0
  0
SCALE
  5
4BD
102
{ACAD_REACTORS
330
99
102
}
330
99
100
AcDbScale
 70
     0
300
1:20
140
1.0
141
20.0
290
     0
  0
SCALE
  5
4BE
102
{ACAD_REACTORS
330
99
102
}
330
99
100
AcDbScale
 70
     0
300
1:30
140
1.0
141
30.0
290
     0
  0
SCALE
  5
4BF
102
{ACAD_REACTORS
330
99
102
}
330
99
100
AcDbScale
 70
     0
300
1:40
140
1.0
141
40.0
290
     0
  0
SCALE
  5
4C0
102
{ACAD_REACTORS
330
99
102
}
330
99
100
AcDbScale
 70
     0
300
1:50
140
1.0
141
50.0
290
     0
  0
SCALE
  5
4C1
102
{ACAD_REACTORS
330
99
102
}
330
99
100
AcDbScale
 70
     0
300
1:100
140
1.0
141
100.0
290
     0
  0
SCALE
  5
4C2
102
{ACAD_REACTORS
330
99
102
}
330
99
100
AcDbScale
 70
     0
300
2:1
140
2.0
141
1.0
290
     0
  0
SCALE
  5
4C3
102
{ACAD_REACTORS
330
99
102
}
330
99
100
AcDbScale
 70
     0
300
4:1
140
4.0
141
1.0
290
     0
  0
SCALE
  5
4C4
102
{ACAD_REACTORS
330
99
102
}
330
99
100
AcDbScale
 70
     0
300
8:1
140
8.0
141
1.0
290
     0
  0
SCALE
  5
4C5
102
{ACAD_REACTORS
330
99
102
}
330
99
100
AcDbScale
 70
     0
300
10:1
140
10.0
141
1.0
290
     0
  0
SCALE
  5
4C6
102
{ACAD_REACTORS
330
99
102
}
330
99
100
AcDbScale
 70
     0
300
100:1
140
100.0
141
1.0
290
     0
  0
SCALE
  5
4C7
102
{ACAD_REACTORS
330
99
102
}
330
99
100
AcDbScale
 70
     0
300
1/128" = 1'-0"
140
0.0078125
141
12.0
290
     0
  0
SCALE
  5
4C8
102
{ACAD_REACTORS
330
99
102
}
330
99
100
AcDbScale
 70
     0
300
1/64" = 1'-0"
140
0.015625
141
12.0
290
     0
  0
SCALE
  5
4C9
102
{ACAD_REACTORS
330
99
102
}
330
99
100
AcDbScale
 70
     0
300
1/32" = 1'-0"
140
0.03125
141
12.0
290
     0
  0
SCALE
  5
4CA
102
{ACAD_REACTORS
330
99
102
}
330
99
100
AcDbScale
 70
     0
300
1/16" = 1'-0"
140
0.0625
141
12.0
290
     0
  0
SCALE
  5
4CB
102
{ACAD_REACTORS
330
99
102
}
330
99
100
AcDbScale
 70
     0
300
3/32" = 1'-0"
140
0.09375
141
12.0
290
     0
  0
SCALE
  5
4CC
102
{ACAD_REACTORS
330
99
102
}
330
99
100
AcDbScale
 70
     0
300
1/8" = 1'-0"
140
0.125
141
12.0
290
     0
  0
SCALE
  5
4CD
102
{ACAD_REACTORS
330
99
102
}
330
99
100
AcDbScale
 70
     0
300
3/16" = 1'-0"
140
0.1875
141
12.0
290
     0
  0
SCALE
  5
4CE
102
{ACAD_REACTORS
330
99
102
}
330
99
100
AcDbScale
 70
     0
300
1/4" = 1'-0"
140
0.25
141
12.0
290
     0
  0
SCALE
  5
4CF
102
{ACAD_REACTORS
330
99
102
}
330
99
100
AcDbScale
 70
     0
300
3/8" = 1'-0"
140
0.375
141
12.0
290
     0
  0
SCALE
  5
4D0
102
{ACAD_REACTORS
330
99
102
}
330
99
100
AcDbScale
 70
     0
300
1/2" = 1'-0"
140
0.5
141
12.0
290
     0
  0
SCALE
  5
4D1
102
{ACAD_REACTORS
330
99
102
}
330
99
100
AcDbScale
 70
     0
300
3/4" = 1'-0"
140
0.75
141
12.0
290
     0
  0
SCALE
  5
4D2
102
{ACAD_REACTORS
330
99
102
}
330
99
100
AcDbScale
 70
     0
300
1" = 1'-0"
140
1.0
141
12.0
290
     0
  0
SCALE
  5
4D3
102
{ACAD_REACTORS
330
99
102
}
330
99
100
AcDbScale
 70
     0
300
1-1/2" = 1'-0"
140
1.5
141
12.0
290
     0
  0
SCALE
  5
4D4
102
{ACAD_REACTORS
330
99
102
}
330
99
100
AcDbScale
 70
     0
300
3" = 1'-0"
140
3.0
141
12.0
290
     0
  0
SCALE
  5
4D5
102
{ACAD_REACTORS
330
99
102
}
330
99
100
AcDbScale
 70
     0
300
6" = 1'-0"
140
6.0
141
12.0
290
     0
  0
SCALE
  5
4D6
102
{ACAD_REACTORS
330
99
102
}
330
99
100
AcDbScale
 70
     0
300
1'-0" = 1'-0"
140
12.0
141
12.0
290
     0
  0
TABLESTYLE
  5
93
102
{ACAD_REACTORS
330
92
102
}
330
92
100
AcDbTableStyle
  3
Standard
 70
     0
 71
     0
 40
0.06
 41
0.06
280
     0
281
     0
  7
Standard
140
0.18
170
     2
 62
     0
 63
   257
283
     0
274
    -2
284
     1
 64
     0
275
    -2
285
     1
 65
     0
276
    -2
286
     1
 66
     0
277
    -2
287
     1
 67
     0
278
    -2
288
     1
 68
     0
279
    -2
289
     1
 69
     0
  7
Standard
140
0.25
170
     5
 62
     0
 63
   257
283
     0
274
    -2
284
     1
 64
     0
275
    -2
285
     1
 65
     0
276
    -2
286
     1
 66
     0
277
    -2
287
     1
 67
     0
278
    -2
288
     1
 68
     0
279
    -2
289
     1
 69
     0
  7
Standard
140
0.18
170
     5
 62
     0
 63
   257
283
     0
274
    -2
284
     1
 64
     0
275
    -2
285
     1
 65
     0
276
    -2
286
     1
 66
     0
277
    -2
287
     1
 67
     0
278
    -2
288
     1
 68
     0
279
    -2
289
     1
 69
     0
  0
XRECORD
  5
564
102
{ACAD_REACTORS
330
563
102
}
330
563
100
AcDbXrecord
280
     1
340
6C
  0
XRECORD
  5
565
102
{ACAD_REACTORS
330
563
102
}
330
563
100
AcDbXrecord
280
     1
340
6B
  0
DICTIONARYVAR
  5
562
102
{ACAD_REACTORS
330
59
102
}
330
59
100
DictionaryVariables
280
     0
  1
1:1
  0
DICTIONARYVAR
  5
98
102
{ACAD_REACTORS
330
59
102
}
330
59
100
DictionaryVariables
280
     0
  1
Standard
  0
DICTIONARYVAR
  5
4DA
102
{ACAD_REACTORS
330
59
102
}
330
59
100
DictionaryVariables
280
     0
  1
2
  0
DICTIONARYVAR
  5
5E
102
{ACAD_REACTORS
330
59
102
}
330
59
100
DictionaryVariables
280
     0
  1
1
  0
DICTIONARYVAR
  5
561
102
{ACAD_REACTORS
330
59
102
}
330
59
100
DictionaryVariables
280
     0
  1
0
  0
ENDSEC
  0
EOF
