  0
SECTION
  2
HEADER
  9
$ACADVER
  1
AC1015
  9
$ACADMAINTVER
 70
     6
  9
$DWGCODEPAGE
  3
ANSI_932
  9
$INSBASE
 10
0.0
 20
0.0
 30
0.0
  9
$EXTMIN
 10
5.5
 20
48.0
 30
0.0
  9
$EXTMAX
 10
2015.5
 20
1433.0
 30
0.0
  9
$LIMMIN
 10
0.0
 20
0.0
  9
$LIMMAX
 10
420.0
 20
297.0
  9
$ORTHOMODE
 70
     0
  9
$REGENMODE
 70
     1
  9
$FILLMODE
 70
     1
  9
$QTEXTMODE
 70
     0
  9
$MIRRTEXT
 70
     1
  9
$LTSCALE
 40
1.0
  9
$ATTMODE
 70
     1
  9
$TEXTSIZE
 40
0.2
  9
$TRACEWID
 40
0.05
  9
$TEXTSTYLE
  7
Standard
  9
$CLAYER
  8
寸法線
  9
$CELTYPE
  6
Continuous
  9
$CECOLOR
 62
   256
  9
$CELTSCALE
 40
1.0
  9
$DISPSILH
 70
     0
  9
$DIMSCALE
 40
1.0
  9
$DIMASZ
 40
0.18
  9
$DIMEXO
 40
0.0625
  9
$DIMDLI
 40
0.38
  9
$DIMRND
 40
0.0
  9
$DIMDLE
 40
0.0
  9
$DIMEXE
 40
0.18
  9
$DIMTP
 40
0.0
  9
$DIMTM
 40
0.0
  9
$DIMTXT
 40
0.18
  9
$DIMCEN
 40
0.09
  9
$DIMTSZ
 40
0.0
  9
$DIMTOL
 70
     0
  9
$DIMLIM
 70
     0
  9
$DIMTIH
 70
     1
  9
$DIMTOH
 70
     1
  9
$DIMSE1
 70
     0
  9
$DIMSE2
 70
     0
  9
$DIMTAD
 70
     0
  9
$DIMZIN
 70
     0
  9
$DIMBLK
  1

  9
$DIMASO
 70
     1
  9
$DIMSHO
 70
     1
  9
$DIMPOST
  1

  9
$DIMAPOST
  1

  9
$DIMALT
 70
     0
  9
$DIMALTD
 70
     2
  9
$DIMALTF
 40
25.4
  9
$DIMLFAC
 40
1.0
  9
$DIMTOFL
 70
     0
  9
$DIMTVP
 40
0.0
  9
$DIMTIX
 70
     0
  9
$DIMSOXD
 70
     0
  9
$DIMSAH
 70
     0
  9
$DIMBLK1
  1

  9
$DIMBLK2
  1

  9
$DIMSTYLE
  2
Standard
  9
$DIMCLRD
 70
     0
  9
$DIMCLRE
 70
     0
  9
$DIMCLRT
 70
     0
  9
$DIMTFAC
 40
1.0
  9
$DIMGAP
 40
0.09
  9
$DIMJUST
 70
     0
  9
$DIMSD1
 70
     0
  9
$DIMSD2
 70
     0
  9
$DIMTOLJ
 70
     1
  9
$DIMTZIN
 70
     0
  9
$DIMALTZ
 70
     0
  9
$DIMALTTZ
 70
     0
  9
$DIMUPT
 70
     0
  9
$DIMDEC
 70
     4
  9
$DIMTDEC
 70
     4
  9
$DIMALTU
 70
     2
  9
$DIMALTTD
 70
     2
  9
$DIMTXSTY
  7
Standard
  9
$DIMAUNIT
 70
     0
  9
$DIMADEC
 70
     0
  9
$DIMALTRND
 40
0.0
  9
$DIMAZIN
 70
     0
  9
$DIMDSEP
 70
    46
  9
$DIMATFIT
 70
     3
  9
$DIMFRAC
 70
     0
  9
$DIMLDRBLK
  1

  9
$DIMLUNIT
 70
     2
  9
$DIMLWD
 70
    -2
  9
$DIMLWE
 70
    -2
  9
$DIMTMOVE
 70
     2
  9
$LUNITS
 70
     2
  9
$LUPREC
 70
     4
  9
$SKETCHINC
 40
0.1
  9
$FILLETRAD
 40
0.0
  9
$AUNITS
 70
     0
  9
$AUPREC
 70
     0
  9
$MENU
  1
.
  9
$ELEVATION
 40
0.0
  9
$PELEVATION
 40
0.0
  9
$THICKNESS
 40
0.0
  9
$LIMCHECK
 70
     0
  9
$CHAMFERA
 40
0.0
  9
$CHAMFERB
 40
0.0
  9
$CHAMFERC
 40
0.0
  9
$CHAMFERD
 40
0.0
  9
$SKPOLY
 70
     0
  9
$TDCREATE
 40
2453354.092125822
  9
$TDUCREATE
 40
2453353.717125822
  9
$TDUPDATE
 40
2455528.144865162
  9
$TDUUPDATE
 40
2455527.769865162
  9
$TDINDWG
 40
0.0430208449
  9
$TDUSRTIMER
 40
0.0430092708
  9
$USRTIMER
 70
     1
  9
$ANGBASE
 50
0.0
  9
$ANGDIR
 70
     0
  9
$PDMODE
 70
     0
  9
$PDSIZE
 40
0.0
  9
$PLINEWID
 40
0.0
  9
$SPLFRAME
 70
     0
  9
$SPLINETYPE
 70
     6
  9
$SPLINESEGS
 70
     8
  9
$HANDSEED
  5
54A
  9
$SURFTAB1
 70
     6
  9
$SURFTAB2
 70
     6
  9
$SURFTYPE
 70
     6
  9
$SURFU
 70
     6
  9
$SURFV
 70
     6
  9
$UCSBASE
  2

  9
$UCSNAME
  2

  9
$UCSORG
 10
0.0
 20
0.0
 30
0.0
  9
$UCSXDIR
 10
1.0
 20
0.0
 30
0.0
  9
$UCSYDIR
 10
0.0
 20
1.0
 30
0.0
  9
$UCSORTHOREF
  2

  9
$UCSORTHOVIEW
 70
     0
  9
$UCSORGTOP
 10
0.0
 20
0.0
 30
0.0
  9
$UCSORGBOTTOM
 10
0.0
 20
0.0
 30
0.0
  9
$UCSORGLEFT
 10
0.0
 20
0.0
 30
0.0
  9
$UCSORGRIGHT
 10
0.0
 20
0.0
 30
0.0
  9
$UCSORGFRONT
 10
0.0
 20
0.0
 30
0.0
  9
$UCSORGBACK
 10
0.0
 20
0.0
 30
0.0
  9
$PUCSBASE
  2

  9
$PUCSNAME
  2

  9
$PUCSORG
 10
0.0
 20
0.0
 30
0.0
  9
$PUCSXDIR
 10
1.0
 20
0.0
 30
0.0
  9
$PUCSYDIR
 10
0.0
 20
1.0
 30
0.0
  9
$PUCSORTHOREF
  2

  9
$PUCSORTHOVIEW
 70
     0
  9
$PUCSORGTOP
 10
0.0
 20
0.0
 30
0.0
  9
$PUCSORGBOTTOM
 10
0.0
 20
0.0
 30
0.0
  9
$PUCSORGLEFT
 10
0.0
 20
0.0
 30
0.0
  9
$PUCSORGRIGHT
 10
0.0
 20
0.0
 30
0.0
  9
$PUCSORGFRONT
 10
0.0
 20
0.0
 30
0.0
  9
$PUCSORGBACK
 10
0.0
 20
0.0
 30
0.0
  9
$USERI1
 70
     0
  9
$USERI2
 70
     0
  9
$USERI3
 70
     0
  9
$USERI4
 70
     0
  9
$USERI5
 70
     0
  9
$USERR1
 40
0.0
  9
$USERR2
 40
0.0
  9
$USERR3
 40
0.0
  9
$USERR4
 40
0.0
  9
$USERR5
 40
0.0
  9
$WORLDVIEW
 70
     1
  9
$SHADEDGE
 70
     3
  9
$SHADEDIF
 70
    70
  9
$TILEMODE
 70
     1
  9
$MAXACTVP
 70
    16
  9
$PINSBASE
 10
0.0
 20
0.0
 30
0.0
  9
$PLIMCHECK
 70
     0
  9
$PEXTMIN
 10
0.0
 20
0.0
 30
0.0
  9
$PEXTMAX
 10
0.0
 20
0.0
 30
0.0
  9
$PLIMMIN
 10
0.0
 20
0.0
  9
$PLIMMAX
 10
0.0
 20
0.0
  9
$UNITMODE
 70
     0
  9
$VISRETAIN
 70
     0
  9
$PLINEGEN
 70
     1
  9
$PSLTSCALE
 70
     0
  9
$TREEDEPTH
 70
  3020
  9
$CMLSTYLE
  2
Standard
  9
$CMLJUST
 70
     0
  9
$CMLSCALE
 40
1.0
  9
$PROXYGRAPHICS
 70
     0
  9
$MEASUREMENT
 70
     0
  9
$CELWEIGHT
370
    -1
  9
$ENDCAPS
280
     0
  9
$JOINSTYLE
280
     0
  9
$LWDISPLAY
290
     0
  9
$INSUNITS
 70
     0
  9
$HYPERLINKBASE
  1

  9
$STYLESHEET
  1

  9
$XEDIT
290
     0
  9
$CEPSNTYPE
380
     0
  9
$PSTYLEMODE
290
     1
  9
$FINGERPRINTGUID
  2
{164D4921-A252-42B2-AF6A-828B996AB138}
  9
$VERSIONGUID
  2
{FAEB1C32-E019-11D5-929B-00C0DF256EC4}
  9
$EXTNAMES
290
     1
  9
$PSVPSCALE
 40
0.0
  9
$OLESTARTUP
290
     0
  0
ENDSEC
  0
SECTION
  2
CLASSES
  0
CLASS
  1
ACDBDICTIONARYWDFLT
  2
AcDbDictionaryWithDefault
  3
ObjectDBX Classes
 90
        0
280
     0
281
     0
  0
CLASS
  1
ACDBPLACEHOLDER
  2
AcDbPlaceHolder
  3
ObjectDBX Classes
 90
        0
280
     0
281
     0
  0
CLASS
  1
LAYOUT
  2
AcDbLayout
  3
ObjectDBX Classes
 90
        0
280
     0
281
     0
  0
CLASS
  1
DICTIONARYVAR
  2
AcDbDictionaryVar
  3
ObjectDBX Classes
 90
        0
280
     0
281
     0
  0
CLASS
  1
TABLESTYLE
  2
AcDbTableStyle
  3
ObjectDBX Classes
 90
     4095
280
     0
281
     0
  0
CLASS
  1
SCALE
  2
AcDbScale
  3
ObjectDBX Classes
 90
     1153
280
     0
281
     0
  0
ENDSEC
  0
SECTION
  2
TABLES
  0
TABLE
  2
VPORT
  5
8
330
0
100
AcDbSymbolTable
 70
     2
  0
VPORT
  5
97
330
8
100
AcDbSymbolTableRecord
100
AcDbViewportTableRecord
  2
*ACTIVE
 70
     0
 10
0.0
 20
0.0
 11
1.0
 21
1.0
 12
1010.5
 22
740.5
 13
0.0
 23
0.0
 14
1.0
 24
1.0
 15
0.0
 25
0.0
 16
0.0
 26
0.0
 36
1.0
 17
0.0
 27
0.0
 37
0.0
 40
1412.7
 41
1.722533
 42
50.0
 43
0.0
 44
0.0
 50
0.0
 51
0.0
 71
    16
 72
   100
 73
     1
 74
     1
 75
     0
 76
     0
 77
     0
 78
     0
281
     0
 65
     0
110
0.0
120
0.0
130
0.0
111
1.0
121
0.0
131
0.0
112
0.0
122
1.0
132
0.0
 79
     0
146
0.0
  0
ENDTAB
  0
TABLE
  2
LTYPE
  5
5
330
0
100
AcDbSymbolTable
 70
     8
  0
LTYPE
  5
14
330
5
100
AcDbSymbolTableRecord
100
AcDbLinetypeTableRecord
  2
ByBlock
 70
     0
  3

 72
    65
 73
     0
 40
0.0
  0
LTYPE
  5
15
330
5
100
AcDbSymbolTableRecord
100
AcDbLinetypeTableRecord
  2
ByLayer
 70
     0
  3

 72
    65
 73
     0
 40
0.0
  0
LTYPE
  5
16
330
5
100
AcDbSymbolTableRecord
100
AcDbLinetypeTableRecord
  2
Continuous
 70
     0
  3
実線
 72
    65
 73
     0
 40
0.0
  0
LTYPE
  5
4C5
330
5
100
AcDbSymbolTableRecord
100
AcDbLinetypeTableRecord
  2
EXLTYPE1
 70
     0
  3
破線
 72
    65
 73
     2
 40
4.0
 49
3.0
 74
     4
 75
     0
340
0
 46
1.0
 50
0.0
 44
0.0
 45
0.0
 49
-1.0
 74
     4
 75
     0
340
0
 46
1.0
 50
0.0
 44
0.0
 45
0.0
  0
LTYPE
  5
4C6
330
5
100
AcDbSymbolTableRecord
100
AcDbLinetypeTableRecord
  2
EXLTYPE2
 70
     0
  3
点線
 72
    65
 73
     2
 40
2.0
 49
1.0
 74
     4
 75
     0
340
0
 46
1.0
 50
0.0
 44
0.0
 45
0.0
 49
-1.0
 74
     4
 75
     0
340
0
 46
1.0
 50
0.0
 44
0.0
 45
0.0
  0
LTYPE
  5
4C7
330
5
100
AcDbSymbolTableRecord
100
AcDbLinetypeTableRecord
  2
EXLTYPE3
 70
     0
  3
一点鎖線
 72
    65
 73
     4
 40
33.0
 49
30.0
 74
     4
 75
     0
340
0
 46
1.0
 50
0.0
 44
0.0
 45
0.0
 49
-1.0
 74
     4
 75
     0
340
0
 46
1.0
 50
0.0
 44
0.0
 45
0.0
 49
1.0
 74
     4
 75
     0
340
0
 46
1.0
 50
0.0
 44
0.0
 45
0.0
 49
-1.0
 74
     4
 75
     0
340
0
 46
1.0
 50
0.0
 44
0.0
 45
0.0
  0
LTYPE
  5
4C8
330
5
100
AcDbSymbolTableRecord
100
AcDbLinetypeTableRecord
  2
EXLTYPE4
 70
     0
  3
二点鎖線
 72
    65
 73
     6
 40
35.0
 49
30.0
 74
     4
 75
     0
340
0
 46
1.0
 50
0.0
 44
0.0
 45
0.0
 49
-1.0
 74
     4
 75
     0
340
0
 46
1.0
 50
0.0
 44
0.0
 45
0.0
 49
1.0
 74
     4
 75
     0
340
0
 46
1.0
 50
0.0
 44
0.0
 45
0.0
 49
-1.0
 74
     4
 75
     0
340
0
 46
1.0
 50
0.0
 44
0.0
 45
0.0
 49
1.0
 74
     4
 75
     0
340
0
 46
1.0
 50
0.0
 44
0.0
 45
0.0
 49
-1.0
 74
     4
 75
     0
340
0
 46
1.0
 50
0.0
 44
0.0
 45
0.0
  0
LTYPE
  5
4C9
330
5
100
AcDbSymbolTableRecord
100
AcDbLinetypeTableRecord
  2
EXLTYPE5
 70
     0
  3
三点鎖線
 72
    65
 73
     8
 40
37.0
 49
30.0
 74
     4
 75
     0
340
0
 46
1.0
 50
0.0
 44
0.0
 45
0.0
 49
-1.0
 74
     4
 75
     0
340
0
 46
1.0
 50
0.0
 44
0.0
 45
0.0
 49
1.0
 74
     4
 75
     0
340
0
 46
1.0
 50
0.0
 44
0.0
 45
0.0
 49
-1.0
 74
     4
 75
     0
340
0
 46
1.0
 50
0.0
 44
0.0
 45
0.0
 49
1.0
 74
     4
 75
     0
340
0
 46
1.0
 50
0.0
 44
0.0
 45
0.0
 49
-1.0
 74
     4
 75
     0
340
0
 46
1.0
 50
0.0
 44
0.0
 45
0.0
 49
1.0
 74
     4
 75
     0
340
0
 46
1.0
 50
0.0
 44
0.0
 45
0.0
 49
-1.0
 74
     4
 75
     0
340
0
 46
1.0
 50
0.0
 44
0.0
 45
0.0
  0
LTYPE
  5
4CA
330
5
100
AcDbSymbolTableRecord
100
AcDbLinetypeTableRecord
  2
EXLTYPE6
 70
     0
  3
四点鎖線
 72
    65
 73
    10
 40
39.0
 49
30.0
 74
     4
 75
     0
340
0
 46
1.0
 50
0.0
 44
0.0
 45
0.0
 49
-1.0
 74
     4
 75
     0
340
0
 46
1.0
 50
0.0
 44
0.0
 45
0.0
 49
1.0
 74
     4
 75
     0
340
0
 46
1.0
 50
0.0
 44
0.0
 45
0.0
 49
-1.0
 74
     4
 75
     0
340
0
 46
1.0
 50
0.0
 44
0.0
 45
0.0
 49
1.0
 74
     4
 75
     0
340
0
 46
1.0
 50
0.0
 44
0.0
 45
0.0
 49
-1.0
 74
     4
 75
     0
340
0
 46
1.0
 50
0.0
 44
0.0
 45
0.0
 49
1.0
 74
     4
 75
     0
340
0
 46
1.0
 50
0.0
 44
0.0
 45
0.0
 49
-1.0
 74
     4
 75
     0
340
0
 46
1.0
 50
0.0
 44
0.0
 45
0.0
 49
1.0
 74
     4
 75
     0
340
0
 46
1.0
 50
0.0
 44
0.0
 45
0.0
 49
-1.0
 74
     4
 75
     0
340
0
 46
1.0
 50
0.0
 44
0.0
 45
0.0
  0
LTYPE
  5
4CB
330
5
100
AcDbSymbolTableRecord
100
AcDbLinetypeTableRecord
  2
EXLTYPE7
 70
     0
  3
一点鎖線4
 72
    65
 73
     4
 40
0.125
 49
0.05
 74
     4
 75
     0
340
0
 46
1.0
 50
0.0
 44
0.0
 45
0.0
 49
-0.025
 74
     4
 75
     0
340
0
 46
1.0
 50
0.0
 44
0.0
 45
0.0
 49
0.025
 74
     4
 75
     0
340
0
 46
1.0
 50
0.0
 44
0.0
 45
0.0
 49
-0.025
 74
     4
 75
     0
340
0
 46
1.0
 50
0.0
 44
0.0
 45
0.0
  0
ENDTAB
  0
TABLE
  2
LAYER
  5
2
330
0
100
AcDbSymbolTable
 70
    11
  0
LAYER
  5
10
330
2
100
AcDbSymbolTableRecord
100
AcDbLayerTableRecord
  2
0
 70
     0
 62
     7
  6
Continuous
370
    -3
390
F
  0
LAYER
  5
26
330
2
100
AcDbSymbolTableRecord
100
AcDbLayerTableRecord
  2
補助線
 70
     1
 62
     4
  6
Continuous
370
    -3
390
F
  0
LAYER
  5
4CC
330
2
100
AcDbSymbolTableRecord
100
AcDbLayerTableRecord
  2
作図線（太線）
 70
     0
 62
     7
  6
Continuous
370
    -3
390
F
  0
LAYER
  5
28
330
2
100
AcDbSymbolTableRecord
100
AcDbLayerTableRecord
  2
寸法線
 70
     0
 62
     1
  6
Continuous
370
    -3
390
F
  0
LAYER
  5
29
330
2
100
AcDbSymbolTableRecord
100
AcDbLayerTableRecord
  2
文字
 70
     0
 62
   101
  6
Continuous
370
    -3
390
F
  0
LAYER
  5
2A
330
2
100
AcDbSymbolTableRecord
100
AcDbLayerTableRecord
  2
図面枠
 70
     0
 62
     2
  6
Continuous
370
    -3
390
F
  0
LAYER
  5
2B
330
2
100
AcDbSymbolTableRecord
100
AcDbLayerTableRecord
  2
作図線（細線）
 70
     0
 62
     3
  6
Continuous
370
    -3
390
F
  0
LAYER
  5
2C
330
2
100
AcDbSymbolTableRecord
100
AcDbLayerTableRecord
  2
作図線（隠線）
 70
     1
 62
   253
  6
EXLTYPE1
370
    -3
390
F
  0
LAYER
  5
2D
330
2
100
AcDbSymbolTableRecord
100
AcDbLayerTableRecord
  2
中心線
 70
     0
 62
     3
  6
EXLTYPE3
370
    -3
390
F
  0
LAYER
  5
2E
330
2
100
AcDbSymbolTableRecord
100
AcDbLayerTableRecord
  2
想像線
 70
     0
 62
     3
  6
EXLTYPE4
370
    -3
390
F
  0
LAYER
  5
2F
330
2
100
AcDbSymbolTableRecord
100
AcDbLayerTableRecord
  2
隠れ細線
 70
     0
 62
     3
  6
EXLTYPE1
370
    -3
390
F
  0
ENDTAB
  0
TABLE
  2
STYLE
  5
3
330
0
100
AcDbSymbolTable
 70
     5
  0
STYLE
  5
11
330
3
100
AcDbSymbolTableRecord
100
AcDbTextStyleTableRecord
  2
Standard
 70
     0
 40
0.0
 41
1.0
 50
0.0
 71
     0
 42
0.2
  3
monotxt
  4
extfont
  0
STYLE
  5
24
330
3
100
AcDbSymbolTableRecord
100
AcDbTextStyleTableRecord
  2
EXCADSTD
 70
     0
 40
0.0
 41
1.0
 50
0.0
 71
     0
 42
0.2
  3
monotxt
  4
extfont
  0
STYLE
  5
25
330
3
100
AcDbSymbolTableRecord
100
AcDbTextStyleTableRecord
  2
EXCADVERT
 70
     4
 40
0.0
 41
1.0
 50
0.0
 71
     0
 42
0.286885
  3
monotxt
  4
extfont
  0
STYLE
  5
320
330
3
100
AcDbSymbolTableRecord
100
AcDbTextStyleTableRecord
  2
EXCADDIM1
 70
     0
 40
0.0
 41
0.63
 50
0.0
 71
     0
 42
0.2
  3
monotxt
  4
extfont
  0
STYLE
  5
42B
330
3
100
AcDbSymbolTableRecord
100
AcDbTextStyleTableRecord
  2
EXCADTTF1
 70
     0
 40
0.0
 41
1.0
 50
0.0
 71
     0
 42
0.2
  3
MS Mincho.ttf
  4

1001
ACAD
1000
MS Mincho
1071
    32785
  0
ENDTAB
  0
TABLE
  2
VIEW
  5
6
330
0
100
AcDbSymbolTable
 70
     0
  0
ENDTAB
  0
TABLE
  2
UCS
  5
7
330
0
100
AcDbSymbolTable
 70
     0
  0
ENDTAB
  0
TABLE
  2
APPID
  5
9
330
0
100
AcDbSymbolTable
 70
     1
  0
APPID
  5
12
330
9
100
AcDbSymbolTableRecord
100
AcDbRegAppTableRecord
  2
ACAD
 70
     0
  0
ENDTAB
  0
TABLE
  2
DIMSTYLE
  5
A
330
0
100
AcDbSymbolTable
 70
     1
100
AcDbDimStyleTable
  0
DIMSTYLE
105
27
102
{ACAD_REACTORS
330
321
330
32C
330
338
330
344
330
350
330
35C
330
368
330
376
330
382
330
38D
330
398
330
3A2
330
3B0
330
3BC
330
3C8
330
3D4
330
3E0
330
3EC
330
3F8
330
404
330
410
330
41F
330
42A
102
}
330
A
100
AcDbSymbolTableRecord
100
AcDbDimStyleTableRecord
  2
Standard
 70
     0
172
     1
340
11
  0
ENDTAB
  0
TABLE
  2
BLOCK_RECORD
  5
1
330
0
100
AcDbSymbolTable
 70
    37
  0
BLOCK_RECORD
  5
1F
102
{ACAD_XDICTIONARY
360
542
102
}
330
1
100
AcDbSymbolTableRecord
100
AcDbBlockTableRecord
  2
*Model_Space
340
22
  0
BLOCK_RECORD
  5
73
330
1
100
AcDbSymbolTableRecord
100
AcDbBlockTableRecord
  2
*Paper_Space
340
74
  0
BLOCK_RECORD
  5
30
330
1
100
AcDbSymbolTableRecord
100
AcDbBlockTableRecord
  2
_EX_NORM
340
0
  0
BLOCK_RECORD
  5
31
330
1
100
AcDbSymbolTableRecord
100
AcDbBlockTableRecord
  2
_EX_BNORM
340
0
  0
BLOCK_RECORD
  5
32
330
1
100
AcDbSymbolTableRecord
100
AcDbBlockTableRecord
  2
_EX_BCIR
340
0
  0
BLOCK_RECORD
  5
33
330
1
100
AcDbSymbolTableRecord
100
AcDbBlockTableRecord
  2
_EX_RCIVIL
340
0
  0
BLOCK_RECORD
  5
34
330
1
100
AcDbSymbolTableRecord
100
AcDbBlockTableRecord
  2
_EX_SLANT
340
0
  0
BLOCK_RECORD
  5
35
330
1
100
AcDbSymbolTableRecord
100
AcDbBlockTableRecord
  2
_EX_NONE
340
0
  0
BLOCK_RECORD
  5
36
330
1
100
AcDbSymbolTableRecord
100
AcDbBlockTableRecord
  2
_EX_CIVIL
340
0
  0
BLOCK_RECORD
  5
37
330
1
100
AcDbSymbolTableRecord
100
AcDbBlockTableRecord
  2
_EX_WCIR
340
0
  0
BLOCK_RECORD
  5
38
330
1
100
AcDbSymbolTableRecord
100
AcDbBlockTableRecord
  2
_EX_WCIR2
340
0
  0
BLOCK_RECORD
  5
39
330
1
100
AcDbSymbolTableRecord
100
AcDbBlockTableRecord
  2
_EX_WNORM
340
0
  0
BLOCK_RECORD
  5
3A
330
1
100
AcDbSymbolTableRecord
100
AcDbBlockTableRecord
  2
_EX_NNORM
340
0
  0
BLOCK_RECORD
  5
3B
330
1
100
AcDbSymbolTableRecord
100
AcDbBlockTableRecord
  2
_EX_BBOX
340
0
  0
BLOCK_RECORD
  5
3C
330
1
100
AcDbSymbolTableRecord
100
AcDbBlockTableRecord
  2
_EX_WBOX
340
0
  0
BLOCK_RECORD
  5
3D
330
1
100
AcDbSymbolTableRecord
100
AcDbBlockTableRecord
  2
_EX_INTEGRAL
340
0
  0
BLOCK_RECORD
  5
315
330
1
100
AcDbSymbolTableRecord
100
AcDbBlockTableRecord
  2
*D14
340
0
  0
BLOCK_RECORD
  5
322
330
1
100
AcDbSymbolTableRecord
100
AcDbBlockTableRecord
  2
*D15
340
0
  0
BLOCK_RECORD
  5
32D
330
1
100
AcDbSymbolTableRecord
100
AcDbBlockTableRecord
  2
*D16
340
0
  0
BLOCK_RECORD
  5
339
330
1
100
AcDbSymbolTableRecord
100
AcDbBlockTableRecord
  2
*D17
340
0
  0
BLOCK_RECORD
  5
345
330
1
100
AcDbSymbolTableRecord
100
AcDbBlockTableRecord
  2
*D18
340
0
  0
BLOCK_RECORD
  5
351
330
1
100
AcDbSymbolTableRecord
100
AcDbBlockTableRecord
  2
*D19
340
0
  0
BLOCK_RECORD
  5
35D
330
1
100
AcDbSymbolTableRecord
100
AcDbBlockTableRecord
  2
*D20
340
0
  0
BLOCK_RECORD
  5
36B
330
1
100
AcDbSymbolTableRecord
100
AcDbBlockTableRecord
  2
*D21
340
0
  0
BLOCK_RECORD
  5
377
330
1
100
AcDbSymbolTableRecord
100
AcDbBlockTableRecord
  2
*D22
340
0
  0
BLOCK_RECORD
  5
383
330
1
100
AcDbSymbolTableRecord
100
AcDbBlockTableRecord
  2
*D23
340
0
  0
BLOCK_RECORD
  5
38E
330
1
100
AcDbSymbolTableRecord
100
AcDbBlockTableRecord
  2
*D24
340
0
  0
BLOCK_RECORD
  5
399
330
1
100
AcDbSymbolTableRecord
100
AcDbBlockTableRecord
  2
*D25
340
0
  0
BLOCK_RECORD
  5
3A5
330
1
100
AcDbSymbolTableRecord
100
AcDbBlockTableRecord
  2
*D26
340
0
  0
BLOCK_RECORD
  5
3B1
330
1
100
AcDbSymbolTableRecord
100
AcDbBlockTableRecord
  2
*D27
340
0
  0
BLOCK_RECORD
  5
3BD
330
1
100
AcDbSymbolTableRecord
100
AcDbBlockTableRecord
  2
*D28
340
0
  0
BLOCK_RECORD
  5
3C9
330
1
100
AcDbSymbolTableRecord
100
AcDbBlockTableRecord
  2
*D29
340
0
  0
BLOCK_RECORD
  5
3D5
330
1
100
AcDbSymbolTableRecord
100
AcDbBlockTableRecord
  2
*D30
340
0
  0
BLOCK_RECORD
  5
3E1
330
1
100
AcDbSymbolTableRecord
100
AcDbBlockTableRecord
  2
*D31
340
0
  0
BLOCK_RECORD
  5
3ED
330
1
100
AcDbSymbolTableRecord
100
AcDbBlockTableRecord
  2
*D32
340
0
  0
BLOCK_RECORD
  5
3F9
330
1
100
AcDbSymbolTableRecord
100
AcDbBlockTableRecord
  2
*D33
340
0
  0
BLOCK_RECORD
  5
405
330
1
100
AcDbSymbolTableRecord
100
AcDbBlockTableRecord
  2
*D34
340
0
  0
BLOCK_RECORD
  5
414
330
1
100
AcDbSymbolTableRecord
100
AcDbBlockTableRecord
  2
*D35
340
0
  0
BLOCK_RECORD
  5
420
330
1
100
AcDbSymbolTableRecord
100
AcDbBlockTableRecord
  2
*D36
340
0
  0
ENDTAB
  0
ENDSEC
  0
SECTION
  2
BLOCKS
  0
BLOCK
  5
20
330
1F
100
AcDbEntity
  8
0
100
AcDbBlockBegin
  2
*Model_Space
 70
     0
 10
0.0
 20
0.0
 30
0.0
  3
*Model_Space
  1

  0
ENDBLK
  5
21
330
1F
100
AcDbEntity
  8
0
100
AcDbBlockEnd
  0
BLOCK
  5
75
330
73
100
AcDbEntity
 67
     1
  8
0
100
AcDbBlockBegin
  2
*Paper_Space
 70
     0
 10
0.0
 20
0.0
 30
0.0
  3
*Paper_Space
  1

  0
ENDBLK
  5
76
330
73
100
AcDbEntity
 67
     1
  8
0
100
AcDbBlockEnd
  0
BLOCK
  5
4CD
330
30
100
AcDbEntity
  8
0
100
AcDbBlockBegin
  2
_EX_NORM
 70
     0
 10
0.0
 20
0.0
 30
0.0
  3
_EX_NORM
  1

  0
LINE
  5
3F
330
30
100
AcDbEntity
  8
0
  6
Continuous
 62
     0
100
AcDbLine
 10
0.0
 20
0.0
 30
0.0
 11
-1.0
 21
0.0
 31
0.0
  0
LINE
  5
40
330
30
100
AcDbEntity
  8
0
  6
Continuous
 62
     0
100
AcDbLine
 10
0.0
 20
0.0
 30
0.0
 11
-1.0
 21
0.166667
 31
0.0
  0
LINE
  5
41
330
30
100
AcDbEntity
  8
0
  6
Continuous
 62
     0
100
AcDbLine
 10
0.0
 20
0.0
 30
0.0
 11
-1.0
 21
-0.166667
 31
0.0
  0
ENDBLK
  5
4CE
330
30
100
AcDbEntity
  8
0
100
AcDbBlockEnd
  0
BLOCK
  5
4CF
330
31
100
AcDbEntity
  8
0
100
AcDbBlockBegin
  2
_EX_BNORM
 70
     0
 10
0.0
 20
0.0
 30
0.0
  3
_EX_BNORM
  1

  0
LINE
  5
44
330
31
100
AcDbEntity
  8
0
  6
Continuous
 62
     0
100
AcDbLine
 10
0.0
 20
0.0
 30
0.0
 11
-1.0
 21
0.0
 31
0.0
  0
LINE
  5
45
330
31
100
AcDbEntity
  8
0
  6
Continuous
 62
     0
100
AcDbLine
 10
0.0
 20
0.0
 30
0.0
 11
-1.0
 21
0.166667
 31
0.0
  0
LINE
  5
46
330
31
100
AcDbEntity
  8
0
  6
Continuous
 62
     0
100
AcDbLine
 10
0.0
 20
0.0
 30
0.0
 11
-1.0
 21
-0.166667
 31
0.0
  0
LINE
  5
47
330
31
100
AcDbEntity
  8
0
  6
Continuous
 62
     0
100
AcDbLine
 10
0.0
 20
0.0
 30
0.0
 11
-1.0
 21
0.083333
 31
0.0
  0
LINE
  5
48
330
31
100
AcDbEntity
  8
0
  6
Continuous
 62
     0
100
AcDbLine
 10
0.0
 20
0.0
 30
0.0
 11
-1.0
 21
-0.083333
 31
0.0
  0
LINE
  5
49
330
31
100
AcDbEntity
  8
0
  6
Continuous
 62
     0
100
AcDbLine
 10
-1.0
 20
0.166667
 30
0.0
 11
-1.0
 21
-0.166667
 31
0.0
  0
ENDBLK
  5
4D0
330
31
100
AcDbEntity
  8
0
100
AcDbBlockEnd
  0
BLOCK
  5
4D1
330
32
100
AcDbEntity
  8
0
100
AcDbBlockBegin
  2
_EX_BCIR
 70
     0
 10
0.0
 20
0.0
 30
0.0
  3
_EX_BCIR
  1

  0
LINE
  5
4C
330
32
100
AcDbEntity
  8
0
  6
Continuous
 62
     0
100
AcDbLine
 10
0.0
 20
0.0
 30
0.0
 11
-1.0
 21
0.0
 31
0.0
  0
CIRCLE
  5
4D
330
32
100
AcDbEntity
  8
0
  6
Continuous
 62
     0
100
AcDbCircle
 10
0.0
 20
0.0
 30
0.0
 40
0.5
  0
CIRCLE
  5
4E
330
32
100
AcDbEntity
  8
0
  6
Continuous
 62
     0
100
AcDbCircle
 10
0.0
 20
0.0
 30
0.0
 40
0.25
  0
ENDBLK
  5
4D2
330
32
100
AcDbEntity
  8
0
100
AcDbBlockEnd
  0
BLOCK
  5
4D3
330
33
100
AcDbEntity
  8
0
100
AcDbBlockBegin
  2
_EX_RCIVIL
 70
     0
 10
0.0
 20
0.0
 30
0.0
  3
_EX_RCIVIL
  1

  0
LINE
  5
51
330
33
100
AcDbEntity
  8
0
  6
Continuous
 62
     0
100
AcDbLine
 10
0.0
 20
0.0
 30
0.0
 11
-1.0
 21
0.0
 31
0.0
  0
LINE
  5
52
330
33
100
AcDbEntity
  8
0
  6
Continuous
 62
     0
100
AcDbLine
 10
-1.0
 20
-0.25
 30
0.0
 11
0.0
 21
-0.25
 31
0.0
  0
LINE
  5
53
330
33
100
AcDbEntity
  8
0
  6
Continuous
 62
     0
100
AcDbLine
 10
-1.0
 20
-0.125
 30
0.0
 11
0.0
 21
-0.125
 31
0.0
  0
ENDBLK
  5
4D4
330
33
100
AcDbEntity
  8
0
100
AcDbBlockEnd
  0
BLOCK
  5
4D5
330
34
100
AcDbEntity
  8
0
100
AcDbBlockBegin
  2
_EX_SLANT
 70
     0
 10
0.0
 20
0.0
 30
0.0
  3
_EX_SLANT
  1

  0
LINE
  5
56
330
34
100
AcDbEntity
  8
0
  6
Continuous
 62
     0
100
AcDbLine
 10
0.0
 20
0.0
 30
0.0
 11
-1.0
 21
0.0
 31
0.0
  0
LINE
  5
57
330
34
100
AcDbEntity
  8
0
  6
Continuous
 62
     0
100
AcDbLine
 10
0.707107
 20
0.707107
 30
0.0
 11
-0.707107
 21
-0.707107
 31
0.0
  0
ENDBLK
  5
4D6
330
34
100
AcDbEntity
  8
0
100
AcDbBlockEnd
  0
BLOCK
  5
4D7
330
35
100
AcDbEntity
  8
0
100
AcDbBlockBegin
  2
_EX_NONE
 70
     0
 10
0.0
 20
0.0
 30
0.0
  3
_EX_NONE
  1

  0
LINE
  5
517
330
35
100
AcDbEntity
  8
0
  6
Continuous
 62
     0
100
AcDbLine
 10
0.0
 20
0.0
 30
0.0
 11
-1.0
 21
0.0
 31
0.0
  0
ENDBLK
  5
4D8
330
35
100
AcDbEntity
  8
0
100
AcDbBlockEnd
  0
BLOCK
  5
4D9
330
36
100
AcDbEntity
  8
0
100
AcDbBlockBegin
  2
_EX_CIVIL
 70
     0
 10
0.0
 20
0.0
 30
0.0
  3
_EX_CIVIL
  1

  0
LINE
  5
5D
330
36
100
AcDbEntity
  8
0
  6
Continuous
 62
     0
100
AcDbLine
 10
0.0
 20
0.0
 30
0.0
 11
-1.0
 21
0.0
 31
0.0
  0
LINE
  5
518
330
36
100
AcDbEntity
  8
0
  6
Continuous
 62
     0
100
AcDbLine
 10
-1.0
 20
0.25
 30
0.0
 11
0.0
 21
0.25
 31
0.0
  0
LINE
  5
5F
330
36
100
AcDbEntity
  8
0
  6
Continuous
 62
     0
100
AcDbLine
 10
-1.0
 20
0.125
 30
0.0
 11
0.0
 21
0.125
 31
0.0
  0
ENDBLK
  5
4DA
330
36
100
AcDbEntity
  8
0
100
AcDbBlockEnd
  0
BLOCK
  5
4DB
330
37
100
AcDbEntity
  8
0
100
AcDbBlockBegin
  2
_EX_WCIR
 70
     0
 10
0.0
 20
0.0
 30
0.0
  3
_EX_WCIR
  1

  0
LINE
  5
62
330
37
100
AcDbEntity
  8
0
  6
Continuous
 62
     0
100
AcDbLine
 10
0.0
 20
0.0
 30
0.0
 11
-1.0
 21
0.0
 31
0.0
  0
CIRCLE
  5
63
330
37
100
AcDbEntity
  8
0
  6
Continuous
 62
     0
100
AcDbCircle
 10
0.0
 20
0.0
 30
0.0
 40
0.5
  0
ENDBLK
  5
4DC
330
37
100
AcDbEntity
  8
0
100
AcDbBlockEnd
  0
BLOCK
  5
4DD
330
38
100
AcDbEntity
  8
0
100
AcDbBlockBegin
  2
_EX_WCIR2
 70
     0
 10
0.0
 20
0.0
 30
0.0
  3
_EX_WCIR2
  1

  0
LINE
  5
66
330
38
100
AcDbEntity
  8
0
  6
Continuous
 62
     0
100
AcDbLine
 10
-0.5
 20
0.0
 30
0.0
 11
-1.0
 21
0.0
 31
0.0
  0
CIRCLE
  5
67
330
38
100
AcDbEntity
  8
0
  6
Continuous
 62
     0
100
AcDbCircle
 10
0.0
 20
0.0
 30
0.0
 40
0.5
  0
ENDBLK
  5
4DE
330
38
100
AcDbEntity
  8
0
100
AcDbBlockEnd
  0
BLOCK
  5
4DF
330
39
100
AcDbEntity
  8
0
100
AcDbBlockBegin
  2
_EX_WNORM
 70
     0
 10
0.0
 20
0.0
 30
0.0
  3
_EX_WNORM
  1

  0
LINE
  5
6A
330
39
100
AcDbEntity
  8
0
  6
Continuous
 62
     0
100
AcDbLine
 10
-1.0
 20
0.0
 30
0.0
 11
-1.0
 21
0.0
 31
0.0
  0
LINE
  5
519
330
39
100
AcDbEntity
  8
0
  6
Continuous
 62
     0
100
AcDbLine
 10
0.0
 20
0.0
 30
0.0
 11
-1.0
 21
0.166667
 31
0.0
  0
LINE
  5
51A
330
39
100
AcDbEntity
  8
0
  6
Continuous
 62
     0
100
AcDbLine
 10
0.0
 20
0.0
 30
0.0
 11
-1.0
 21
-0.166667
 31
0.0
  0
LINE
  5
6D
330
39
100
AcDbEntity
  8
0
  6
Continuous
 62
     0
100
AcDbLine
 10
-1.0
 20
0.166667
 30
0.0
 11
-1.0
 21
-0.166667
 31
0.0
  0
ENDBLK
  5
4E0
330
39
100
AcDbEntity
  8
0
100
AcDbBlockEnd
  0
BLOCK
  5
4E1
330
3A
100
AcDbEntity
  8
0
100
AcDbBlockBegin
  2
_EX_NNORM
 70
     0
 10
0.0
 20
0.0
 30
0.0
  3
_EX_NNORM
  1

  0
LINE
  5
70
330
3A
100
AcDbEntity
  8
0
  6
Continuous
 62
     0
100
AcDbLine
 10
0.0
 20
0.0
 30
0.0
 11
-1.0
 21
0.0
 31
0.0
  0
LINE
  5
71
330
3A
100
AcDbEntity
  8
0
  6
Continuous
 62
     0
100
AcDbLine
 10
0.0
 20
0.0
 30
0.0
 11
-1.0
 21
0.166667
 31
0.0
  0
LINE
  5
72
330
3A
100
AcDbEntity
  8
0
  6
Continuous
 62
     0
100
AcDbLine
 10
0.0
 20
0.0
 30
0.0
 11
-1.0
 21
-0.166667
 31
0.0
  0
LINE
  5
51B
330
3A
100
AcDbEntity
  8
0
  6
Continuous
 62
     0
100
AcDbLine
 10
-1.0
 20
0.166667
 30
0.0
 11
-1.0
 21
-0.166667
 31
0.0
  0
ENDBLK
  5
4E2
330
3A
100
AcDbEntity
  8
0
100
AcDbBlockEnd
  0
BLOCK
  5
4E3
330
3B
100
AcDbEntity
  8
0
100
AcDbBlockBegin
  2
_EX_BBOX
 70
     0
 10
0.0
 20
0.0
 30
0.0
  3
_EX_BBOX
  1

  0
LINE
  5
51C
330
3B
100
AcDbEntity
  8
0
  6
Continuous
 62
     0
100
AcDbLine
 10
0.0
 20
0.0
 30
0.0
 11
-1.0
 21
0.0
 31
0.0
  0
LINE
  5
77
330
3B
100
AcDbEntity
  8
0
  6
Continuous
 62
     0
100
AcDbLine
 10
-0.5
 20
0.5
 30
0.0
 11
0.5
 21
0.5
 31
0.0
  0
LINE
  5
78
330
3B
100
AcDbEntity
  8
0
  6
Continuous
 62
     0
100
AcDbLine
 10
0.5
 20
0.5
 30
0.0
 11
0.5
 21
-0.5
 31
0.0
  0
LINE
  5
79
330
3B
100
AcDbEntity
  8
0
  6
Continuous
 62
     0
100
AcDbLine
 10
0.5
 20
-0.5
 30
0.0
 11
-0.5
 21
-0.5
 31
0.0
  0
LINE
  5
7A
330
3B
100
AcDbEntity
  8
0
  6
Continuous
 62
     0
100
AcDbLine
 10
-0.5
 20
-0.5
 30
0.0
 11
-0.5
 21
0.5
 31
0.0
  0
LINE
  5
7B
330
3B
100
AcDbEntity
  8
0
  6
Continuous
 62
     0
100
AcDbLine
 10
-0.25
 20
0.25
 30
0.0
 11
0.25
 21
0.25
 31
0.0
  0
LINE
  5
7C
330
3B
100
AcDbEntity
  8
0
  6
Continuous
 62
     0
100
AcDbLine
 10
0.25
 20
0.25
 30
0.0
 11
0.25
 21
-0.25
 31
0.0
  0
LINE
  5
7D
330
3B
100
AcDbEntity
  8
0
  6
Continuous
 62
     0
100
AcDbLine
 10
0.25
 20
-0.25
 30
0.0
 11
-0.25
 21
-0.25
 31
0.0
  0
LINE
  5
7E
330
3B
100
AcDbEntity
  8
0
  6
Continuous
 62
     0
100
AcDbLine
 10
-0.25
 20
-0.25
 30
0.0
 11
-0.25
 21
0.25
 31
0.0
  0
ENDBLK
  5
4E4
330
3B
100
AcDbEntity
  8
0
100
AcDbBlockEnd
  0
BLOCK
  5
4E5
330
3C
100
AcDbEntity
  8
0
100
AcDbBlockBegin
  2
_EX_WBOX
 70
     0
 10
0.0
 20
0.0
 30
0.0
  3
_EX_WBOX
  1

  0
LINE
  5
81
330
3C
100
AcDbEntity
  8
0
  6
Continuous
 62
     0
100
AcDbLine
 10
-0.5
 20
0.0
 30
0.0
 11
-1.0
 21
0.0
 31
0.0
  0
LINE
  5
82
330
3C
100
AcDbEntity
  8
0
  6
Continuous
 62
     0
100
AcDbLine
 10
-0.5
 20
0.5
 30
0.0
 11
0.5
 21
0.5
 31
0.0
  0
LINE
  5
83
330
3C
100
AcDbEntity
  8
0
  6
Continuous
 62
     0
100
AcDbLine
 10
0.5
 20
0.5
 30
0.0
 11
0.5
 21
-0.5
 31
0.0
  0
LINE
  5
84
330
3C
100
AcDbEntity
  8
0
  6
Continuous
 62
     0
100
AcDbLine
 10
0.5
 20
-0.5
 30
0.0
 11
-0.5
 21
-0.5
 31
0.0
  0
LINE
  5
85
330
3C
100
AcDbEntity
  8
0
  6
Continuous
 62
     0
100
AcDbLine
 10
-0.5
 20
-0.5
 30
0.0
 11
-0.5
 21
0.5
 31
0.0
  0
ENDBLK
  5
4E6
330
3C
100
AcDbEntity
  8
0
100
AcDbBlockEnd
  0
BLOCK
  5
4E7
330
3D
100
AcDbEntity
  8
0
100
AcDbBlockBegin
  2
_EX_INTEGRAL
 70
     0
 10
0.0
 20
0.0
 30
0.0
  3
_EX_INTEGRAL
  1

  0
LINE
  5
88
330
3D
100
AcDbEntity
  8
0
  6
Continuous
 62
     0
100
AcDbLine
 10
0.0
 20
0.0
 30
0.0
 11
-1.0
 21
0.0
 31
0.0
  0
ARC
  5
89
330
3D
100
AcDbEntity
  8
0
  6
Continuous
 62
     0
100
AcDbCircle
 10
0.542115
 20
0.164992
 30
0.0
 40
0.56667
100
AcDbArc
 50
73.07249
 51
196.927513
  0
ARC
  5
8A
330
3D
100
AcDbEntity
  8
0
  6
Continuous
 62
     0
100
AcDbCircle
 10
-0.542115
 20
-0.164992
 30
0.0
 40
0.56667
100
AcDbArc
 50
253.072487
 51
16.927513
  0
ENDBLK
  5
4E8
330
3D
100
AcDbEntity
  8
0
100
AcDbBlockEnd
  0
BLOCK
  5
4E9
330
315
100
AcDbEntity
  8
0
100
AcDbBlockBegin
  2
*D14
 70
     1
 10
0.0
 20
0.0
 30
0.0
  3
*D14
  1

  0
LINE
  5
317
330
315
100
AcDbEntity
  8
寸法線
  6
Continuous
 62
     1
100
AcDbLine
 10
1478.7
 20
1088.8
 30
0.0
 11
1478.7
 21
1342.0
 31
0.0
  0
LINE
  5
318
330
315
100
AcDbEntity
  8
寸法線
  6
Continuous
 62
     1
100
AcDbLine
 10
1183.7
 20
1259.8
 30
0.0
 11
1183.7
 21
1342.0
 31
0.0
  0
TEXT
  5
319
330
315
100
AcDbEntity
  8
寸法線
  6
Continuous
 62
     1
100
AcDbText
 10
1307.179
 20
1342.0
 30
0.0
 40
20.0
  1
295
 41
0.63
  7
EXCADSTD
 72
     1
 11
1324.0
 21
1342.0
 31
0.0
100
AcDbText
  0
LINE
  5
31A
330
315
100
AcDbEntity
  8
寸法線
  6
Continuous
 62
     1
100
AcDbLine
 10
1478.7
 20
1339.5
 30
0.0
 11
1183.7
 21
1339.5
 31
0.0
  0
LINE
  5
31B
330
315
100
AcDbEntity
  8
寸法線
  6
Continuous
 62
     1
100
AcDbLine
 10
1463.7
 20
1337.0
 30
0.0
 11
1478.7
 21
1339.5
 31
0.0
  0
LINE
  5
31C
330
315
100
AcDbEntity
  8
寸法線
  6
Continuous
 62
     1
100
AcDbLine
 10
1478.7
 20
1339.5
 30
0.0
 11
1463.7
 21
1342.0
 31
0.0
  0
LINE
  5
31D
330
315
100
AcDbEntity
  8
寸法線
  6
Continuous
 62
     1
100
AcDbLine
 10
1198.7
 20
1342.0
 30
0.0
 11
1183.7
 21
1339.5
 31
0.0
  0
LINE
  5
31E
330
315
100
AcDbEntity
  8
寸法線
  6
Continuous
 62
     1
100
AcDbLine
 10
1183.7
 20
1339.5
 30
0.0
 11
1198.7
 21
1337.0
 31
0.0
  0
ENDBLK
  5
4EA
330
315
100
AcDbEntity
  8
0
100
AcDbBlockEnd
  0
BLOCK
  5
4EB
330
322
100
AcDbEntity
  8
0
100
AcDbBlockBegin
  2
*D15
 70
     1
 10
0.0
 20
0.0
 30
0.0
  3
*D15
  1

  0
LINE
  5
324
330
322
100
AcDbEntity
  8
寸法線
  6
Continuous
 62
     1
100
AcDbLine
 10
506.9
 20
1259.8
 30
0.0
 11
506.9
 21
1342.0
 31
0.0
  0
TEXT
  5
325
330
322
100
AcDbEntity
  8
寸法線
  6
Continuous
 62
     1
100
AcDbText
 10
602.179
 20
1342.0
 30
0.0
 40
20.0
  1
220
 41
0.63
  7
EXCADSTD
 72
     1
 11
619.0
 21
1342.0
 31
0.0
100
AcDbText
  0
LINE
  5
326
330
322
100
AcDbEntity
  8
寸法線
  6
Continuous
 62
     1
100
AcDbLine
 10
506.9
 20
1339.5
 30
0.0
 11
726.9
 21
1339.5
 31
0.0
  0
LINE
  5
327
330
322
100
AcDbEntity
  8
寸法線
  6
Continuous
 62
     1
100
AcDbLine
 10
521.9
 20
1342.0
 30
0.0
 11
506.9
 21
1339.5
 31
0.0
  0
LINE
  5
328
330
322
100
AcDbEntity
  8
寸法線
  6
Continuous
 62
     1
100
AcDbLine
 10
506.9
 20
1339.5
 30
0.0
 11
521.9
 21
1337.0
 31
0.0
  0
LINE
  5
329
330
322
100
AcDbEntity
  8
寸法線
  6
Continuous
 62
     1
100
AcDbLine
 10
711.9
 20
1337.0
 30
0.0
 11
726.9
 21
1339.5
 31
0.0
  0
LINE
  5
32A
330
322
100
AcDbEntity
  8
寸法線
  6
Continuous
 62
     1
100
AcDbLine
 10
726.9
 20
1339.5
 30
0.0
 11
711.9
 21
1342.0
 31
0.0
  0
ENDBLK
  5
4EC
330
322
100
AcDbEntity
  8
0
100
AcDbBlockEnd
  0
BLOCK
  5
4ED
330
32D
100
AcDbEntity
  8
0
100
AcDbBlockBegin
  2
*D16
 70
     1
 10
0.0
 20
0.0
 30
0.0
  3
*D16
  1

  0
LINE
  5
32F
330
32D
100
AcDbEntity
  8
寸法線
  6
Continuous
 62
     1
100
AcDbLine
 10
1481.2
 20
822.3
 30
0.0
 11
1647.5
 21
822.3
 31
0.0
  0
LINE
  5
330
330
32D
100
AcDbEntity
  8
寸法線
  6
Continuous
 62
     1
100
AcDbLine
 10
1463.2
 20
1270.3
 30
0.0
 11
1647.5
 21
1270.3
 31
0.0
  0
TEXT
  5
331
330
32D
100
AcDbEntity
  8
寸法線
  6
Continuous
 62
     1
100
AcDbText
 10
1642.5
 20
1026.679
 30
0.0
 40
20.0
  1
448
 50
90.0
 41
0.63
  7
EXCADSTD
 72
     1
 11
1642.5
 21
1043.5
 31
0.0
100
AcDbText
  0
LINE
  5
332
330
32D
100
AcDbEntity
  8
寸法線
  6
Continuous
 62
     1
100
AcDbLine
 10
1645.0
 20
822.3
 30
0.0
 11
1645.0
 21
1270.3
 31
0.0
  0
LINE
  5
333
330
32D
100
AcDbEntity
  8
寸法線
  6
Continuous
 62
     1
100
AcDbLine
 10
1642.5
 20
837.3
 30
0.0
 11
1645.0
 21
822.3
 31
0.0
  0
LINE
  5
334
330
32D
100
AcDbEntity
  8
寸法線
  6
Continuous
 62
     1
100
AcDbLine
 10
1645.0
 20
822.3
 30
0.0
 11
1647.5
 21
837.3
 31
0.0
  0
LINE
  5
335
330
32D
100
AcDbEntity
  8
寸法線
  6
Continuous
 62
     1
100
AcDbLine
 10
1647.5
 20
1255.3
 30
0.0
 11
1645.0
 21
1270.3
 31
0.0
  0
LINE
  5
336
330
32D
100
AcDbEntity
  8
寸法線
  6
Continuous
 62
     1
100
AcDbLine
 10
1645.0
 20
1270.3
 30
0.0
 11
1642.5
 21
1255.3
 31
0.0
  0
ENDBLK
  5
4EE
330
32D
100
AcDbEntity
  8
0
100
AcDbBlockEnd
  0
BLOCK
  5
4EF
330
339
100
AcDbEntity
  8
0
100
AcDbBlockBegin
  2
*D17
 70
     1
 10
0.0
 20
0.0
 30
0.0
  3
*D17
  1

  0
LINE
  5
33B
330
339
100
AcDbEntity
  8
寸法線
  6
Continuous
 62
     1
100
AcDbLine
 10
1587.5
 20
847.3
 30
0.0
 11
1587.5
 21
762.999999
 31
0.0
  0
LINE
  5
33C
330
339
100
AcDbEntity
  8
寸法線
  6
Continuous
 62
     1
100
AcDbLine
 10
1585.0
 20
837.3
 30
0.0
 11
1587.5
 21
822.3
 31
0.0
  0
LINE
  5
33D
330
339
100
AcDbEntity
  8
寸法線
  6
Continuous
 62
     1
100
AcDbLine
 10
1587.5
 20
822.3
 30
0.0
 11
1590.0
 21
837.3
 31
0.0
  0
LINE
  5
33E
330
339
100
AcDbEntity
  8
寸法線
  6
Continuous
 62
     1
100
AcDbLine
 10
1590.0
 20
787.3
 30
0.0
 11
1587.5
 21
802.3
 31
0.0
  0
LINE
  5
33F
330
339
100
AcDbEntity
  8
寸法線
  6
Continuous
 62
     1
100
AcDbLine
 10
1587.5
 20
802.3
 30
0.0
 11
1585.0
 21
787.3
 31
0.0
  0
TEXT
  5
340
330
339
100
AcDbEntity
  8
寸法線
  6
Continuous
 62
     1
100
AcDbText
 10
1585.0
 20
769.979
 30
0.0
 40
20.0
  1
20
 50
90.0
 41
0.63
  7
EXCADSTD
 72
     1
 11
1585.0
 21
780.5
 31
0.0
100
AcDbText
  0
LINE
  5
341
330
339
100
AcDbEntity
  8
寸法線
  6
Continuous
 62
     1
100
AcDbLine
 10
1481.2
 20
822.3
 30
0.0
 11
1590.0
 21
822.3
 31
0.0
  0
LINE
  5
342
330
339
100
AcDbEntity
  8
寸法線
  6
Continuous
 62
     1
100
AcDbLine
 10
1309.2
 20
802.3
 30
0.0
 11
1590.0
 21
802.3
 31
0.0
  0
ENDBLK
  5
4F0
330
339
100
AcDbEntity
  8
0
100
AcDbBlockEnd
  0
BLOCK
  5
4F1
330
345
100
AcDbEntity
  8
0
100
AcDbBlockBegin
  2
*D18
 70
     1
 10
0.0
 20
0.0
 30
0.0
  3
*D18
  1

  0
LINE
  5
347
330
345
100
AcDbEntity
  8
寸法線
  6
Continuous
 62
     1
100
AcDbLine
 10
664.4
 20
695.3
 30
0.0
 11
824.0
 21
695.3
 31
0.0
  0
TEXT
  5
348
330
345
100
AcDbEntity
  8
寸法線
  6
Continuous
 62
     1
100
AcDbText
 10
819.0
 20
730.679
 30
0.0
 40
20.0
  1
100
 50
90.0
 41
0.63
  7
EXCADSTD
 72
     1
 11
819.0
 21
747.5
 31
0.0
100
AcDbText
  0
LINE
  5
349
330
345
100
AcDbEntity
  8
寸法線
  6
Continuous
 62
     1
100
AcDbLine
 10
821.5
 20
795.3
 30
0.0
 11
821.5
 21
695.3
 31
0.0
  0
LINE
  5
34A
330
345
100
AcDbEntity
  8
寸法線
  6
Continuous
 62
     1
100
AcDbLine
 10
824.0
 20
780.3
 30
0.0
 11
821.5
 21
795.3
 31
0.0
  0
LINE
  5
34B
330
345
100
AcDbEntity
  8
寸法線
  6
Continuous
 62
     1
100
AcDbLine
 10
821.5
 20
795.3
 30
0.0
 11
819.0
 21
780.3
 31
0.0
  0
LINE
  5
34C
330
345
100
AcDbEntity
  8
寸法線
  6
Continuous
 62
     1
100
AcDbLine
 10
819.0
 20
710.3
 30
0.0
 11
821.5
 21
695.3
 31
0.0
  0
LINE
  5
34D
330
345
100
AcDbEntity
  8
寸法線
  6
Continuous
 62
     1
100
AcDbLine
 10
821.5
 20
695.3
 30
0.0
 11
824.0
 21
710.3
 31
0.0
  0
LINE
  5
34E
330
345
100
AcDbEntity
  8
寸法線
  6
Continuous
 62
     1
100
AcDbLine
 10
664.4
 20
795.3
 30
0.0
 11
824.0
 21
795.3
 31
0.0
  0
ENDBLK
  5
4F2
330
345
100
AcDbEntity
  8
0
100
AcDbBlockEnd
  0
BLOCK
  5
4F3
330
351
100
AcDbEntity
  8
0
100
AcDbBlockBegin
  2
*D19
 70
     1
 10
0.0
 20
0.0
 30
0.0
  3
*D19
  1

  0
LINE
  5
353
330
351
100
AcDbEntity
  8
寸法線
  6
Continuous
 62
     1
100
AcDbLine
 10
1478.7
 20
666.5
 30
0.0
 11
1306.7
 21
666.5
 31
0.0
  0
LINE
  5
354
330
351
100
AcDbEntity
  8
寸法線
  6
Continuous
 62
     1
100
AcDbLine
 10
1463.7
 20
664.0
 30
0.0
 11
1478.7
 21
666.5
 31
0.0
  0
LINE
  5
355
330
351
100
AcDbEntity
  8
寸法線
  6
Continuous
 62
     1
100
AcDbLine
 10
1478.7
 20
666.5
 30
0.0
 11
1463.7
 21
669.0
 31
0.0
  0
LINE
  5
356
330
351
100
AcDbEntity
  8
寸法線
  6
Continuous
 62
     1
100
AcDbLine
 10
1321.7
 20
669.0
 30
0.0
 11
1306.7
 21
666.5
 31
0.0
  0
LINE
  5
357
330
351
100
AcDbEntity
  8
寸法線
  6
Continuous
 62
     1
100
AcDbLine
 10
1306.7
 20
666.5
 30
0.0
 11
1321.7
 21
664.0
 31
0.0
  0
TEXT
  5
358
330
351
100
AcDbEntity
  8
寸法線
  6
Continuous
 62
     1
100
AcDbText
 10
1376.679
 20
669.0
 30
0.0
 40
20.0
  1
172
 41
0.63
  7
EXCADSTD
 72
     1
 11
1393.5
 21
669.0
 31
0.0
100
AcDbText
  0
LINE
  5
359
330
351
100
AcDbEntity
  8
寸法線
  6
Continuous
 62
     1
100
AcDbLine
 10
1478.7
 20
819.8
 30
0.0
 11
1478.7
 21
664.0
 31
0.0
  0
LINE
  5
35A
330
351
100
AcDbEntity
  8
寸法線
  6
Continuous
 62
     1
100
AcDbLine
 10
1306.7
 20
799.8
 30
0.0
 11
1306.7
 21
664.0
 31
0.0
  0
ENDBLK
  5
4F4
330
351
100
AcDbEntity
  8
0
100
AcDbBlockEnd
  0
BLOCK
  5
4F5
330
35D
100
AcDbEntity
  8
0
100
AcDbBlockBegin
  2
*D20
 70
     1
 10
0.0
 20
0.0
 30
0.0
  3
*D20
  1

  0
LINE
  5
35F
330
35D
100
AcDbEntity
  8
寸法線
  6
Continuous
 62
     1
100
AcDbLine
 10
1306.7
 20
666.5
 30
0.0
 11
1183.7
 21
666.5
 31
0.0
  0
LINE
  5
360
330
35D
100
AcDbEntity
  8
寸法線
  6
Continuous
 62
     1
100
AcDbLine
 10
1291.7
 20
664.0
 30
0.0
 11
1306.7
 21
666.5
 31
0.0
  0
LINE
  5
361
330
35D
100
AcDbEntity
  8
寸法線
  6
Continuous
 62
     1
100
AcDbLine
 10
1306.7
 20
666.5
 30
0.0
 11
1291.7
 21
669.0
 31
0.0
  0
LINE
  5
362
330
35D
100
AcDbEntity
  8
寸法線
  6
Continuous
 62
     1
100
AcDbLine
 10
1198.7
 20
669.0
 30
0.0
 11
1183.7
 21
666.5
 31
0.0
  0
LINE
  5
363
330
35D
100
AcDbEntity
  8
寸法線
  6
Continuous
 62
     1
100
AcDbLine
 10
1183.7
 20
666.5
 30
0.0
 11
1198.7
 21
664.0
 31
0.0
  0
TEXT
  5
364
330
35D
100
AcDbEntity
  8
寸法線
  6
Continuous
 62
     1
100
AcDbText
 10
1227.179
 20
669.0
 30
0.0
 40
20.0
  1
123
 41
0.63
  7
EXCADSTD
 72
     1
 11
1244.0
 21
669.0
 31
0.0
100
AcDbText
  0
LINE
  5
365
330
35D
100
AcDbEntity
  8
寸法線
  6
Continuous
 62
     1
100
AcDbLine
 10
1306.7
 20
799.8
 30
0.0
 11
1306.7
 21
664.0
 31
0.0
  0
LINE
  5
366
330
35D
100
AcDbEntity
  8
寸法線
  6
Continuous
 62
     1
100
AcDbLine
 10
1183.7
 20
799.8
 30
0.0
 11
1183.7
 21
664.0
 31
0.0
  0
ENDBLK
  5
4F6
330
35D
100
AcDbEntity
  8
0
100
AcDbBlockEnd
  0
BLOCK
  5
4F7
330
36B
100
AcDbEntity
  8
0
100
AcDbBlockBegin
  2
*D21
 70
     1
 10
0.0
 20
0.0
 30
0.0
  3
*D21
  1

  0
LINE
  5
36D
330
36B
100
AcDbEntity
  8
寸法線
  6
Continuous
 62
     1
100
AcDbLine
 10
1481.2
 20
646.5
 30
0.0
 11
1587.5
 21
646.5
 31
0.0
  0
LINE
  5
36E
330
36B
100
AcDbEntity
  8
寸法線
  6
Continuous
 62
     1
100
AcDbLine
 10
1481.2
 20
426.5
 30
0.0
 11
1587.5
 21
426.5
 31
0.0
  0
TEXT
  5
36F
330
36B
100
AcDbEntity
  8
寸法線
  6
Continuous
 62
     1
100
AcDbText
 10
1582.5
 20
520.679
 30
0.0
 40
20.0
  1
220
 50
90.0
 41
0.63
  7
EXCADSTD
 72
     1
 11
1582.5
 21
537.5
 31
0.0
100
AcDbText
  0
LINE
  5
370
330
36B
100
AcDbEntity
  8
寸法線
  6
Continuous
 62
     1
100
AcDbLine
 10
1585.0
 20
646.5
 30
0.0
 11
1585.0
 21
426.5
 31
0.0
  0
LINE
  5
371
330
36B
100
AcDbEntity
  8
寸法線
  6
Continuous
 62
     1
100
AcDbLine
 10
1587.5
 20
631.5
 30
0.0
 11
1585.0
 21
646.5
 31
0.0
  0
LINE
  5
372
330
36B
100
AcDbEntity
  8
寸法線
  6
Continuous
 62
     1
100
AcDbLine
 10
1585.0
 20
646.5
 30
0.0
 11
1582.5
 21
631.5
 31
0.0
  0
LINE
  5
373
330
36B
100
AcDbEntity
  8
寸法線
  6
Continuous
 62
     1
100
AcDbLine
 10
1582.5
 20
441.5
 30
0.0
 11
1585.0
 21
426.5
 31
0.0
  0
LINE
  5
374
330
36B
100
AcDbEntity
  8
寸法線
  6
Continuous
 62
     1
100
AcDbLine
 10
1585.0
 20
426.5
 30
0.0
 11
1587.5
 21
441.5
 31
0.0
  0
ENDBLK
  5
4F8
330
36B
100
AcDbEntity
  8
0
100
AcDbBlockEnd
  0
BLOCK
  5
4F9
330
377
100
AcDbEntity
  8
0
100
AcDbBlockBegin
  2
*D22
 70
     1
 10
0.0
 20
0.0
 30
0.0
  3
*D22
  1

  0
LINE
  5
379
330
377
100
AcDbEntity
  8
寸法線
  6
Continuous
 62
     1
100
AcDbLine
 10
1474.6
 20
466.5
 30
0.0
 11
1549.0
 21
466.5
 31
0.0
  0
LINE
  5
37A
330
377
100
AcDbEntity
  8
寸法線
  6
Continuous
 62
     1
100
AcDbLine
 10
1474.6
 20
606.5
 30
0.0
 11
1549.0
 21
606.5
 31
0.0
  0
TEXT
  5
37B
330
377
100
AcDbEntity
  8
寸法線
  6
Continuous
 62
     1
100
AcDbText
 10
1544.0
 20
519.179
 30
0.0
 40
20.0
  1
140
 50
90.0
 41
0.63
  7
EXCADSTD
 72
     1
 11
1544.0
 21
536.0
 31
0.0
100
AcDbText
  0
LINE
  5
37C
330
377
100
AcDbEntity
  8
寸法線
  6
Continuous
 62
     1
100
AcDbLine
 10
1546.5
 20
466.5
 30
0.0
 11
1546.5
 21
606.5
 31
0.0
  0
LINE
  5
37D
330
377
100
AcDbEntity
  8
寸法線
  6
Continuous
 62
     1
100
AcDbLine
 10
1544.0
 20
481.5
 30
0.0
 11
1546.5
 21
466.5
 31
0.0
  0
LINE
  5
37E
330
377
100
AcDbEntity
  8
寸法線
  6
Continuous
 62
     1
100
AcDbLine
 10
1546.5
 20
466.5
 30
0.0
 11
1549.0
 21
481.5
 31
0.0
  0
LINE
  5
37F
330
377
100
AcDbEntity
  8
寸法線
  6
Continuous
 62
     1
100
AcDbLine
 10
1549.0
 20
591.5
 30
0.0
 11
1546.5
 21
606.5
 31
0.0
  0
LINE
  5
380
330
377
100
AcDbEntity
  8
寸法線
  6
Continuous
 62
     1
100
AcDbLine
 10
1546.5
 20
606.5
 30
0.0
 11
1544.0
 21
591.5
 31
0.0
  0
ENDBLK
  5
4FA
330
377
100
AcDbEntity
  8
0
100
AcDbBlockEnd
  0
BLOCK
  5
4FB
330
383
100
AcDbEntity
  8
0
100
AcDbBlockBegin
  2
*D23
 70
     1
 10
0.0
 20
0.0
 30
0.0
  3
*D23
  1

  0
LINE
  5
385
330
383
100
AcDbEntity
  8
寸法線
  6
Continuous
 62
     1
100
AcDbLine
 10
1388.7
 20
447.5
 30
0.0
 11
1388.7
 21
387.0
 31
0.0
  0
TEXT
  5
386
330
383
100
AcDbEntity
  8
寸法線
  6
Continuous
 62
     1
100
AcDbText
 10
1344.679
 20
392.0
 30
0.0
 40
20.0
  1
67
 41
0.63
  7
EXCADSTD
 72
     1
 11
1355.2
 21
392.0
 31
0.0
100
AcDbText
  0
LINE
  5
387
330
383
100
AcDbEntity
  8
寸法線
  6
Continuous
 62
     1
100
AcDbLine
 10
1321.7
 20
389.5
 30
0.0
 11
1388.7
 21
389.5
 31
0.0
  0
LINE
  5
388
330
383
100
AcDbEntity
  8
寸法線
  6
Continuous
 62
     1
100
AcDbLine
 10
1336.7
 20
392.0
 30
0.0
 11
1321.7
 21
389.5
 31
0.0
  0
LINE
  5
389
330
383
100
AcDbEntity
  8
寸法線
  6
Continuous
 62
     1
100
AcDbLine
 10
1321.7
 20
389.5
 30
0.0
 11
1336.7
 21
387.0
 31
0.0
  0
LINE
  5
38A
330
383
100
AcDbEntity
  8
寸法線
  6
Continuous
 62
     1
100
AcDbLine
 10
1373.7
 20
387.0
 30
0.0
 11
1388.7
 21
389.5
 31
0.0
  0
LINE
  5
38B
330
383
100
AcDbEntity
  8
寸法線
  6
Continuous
 62
     1
100
AcDbLine
 10
1388.7
 20
389.5
 30
0.0
 11
1373.7
 21
392.0
 31
0.0
  0
ENDBLK
  5
4FC
330
383
100
AcDbEntity
  8
0
100
AcDbBlockEnd
  0
BLOCK
  5
4FD
330
38E
100
AcDbEntity
  8
0
100
AcDbBlockBegin
  2
*D24
 70
     1
 10
0.0
 20
0.0
 30
0.0
  3
*D24
  1

  0
LINE
  5
390
330
38E
100
AcDbEntity
  8
寸法線
  6
Continuous
 62
     1
100
AcDbLine
 10
1448.7
 20
447.5
 30
0.0
 11
1448.7
 21
387.0
 31
0.0
  0
TEXT
  5
391
330
38E
100
AcDbEntity
  8
寸法線
  6
Continuous
 62
     1
100
AcDbText
 10
1408.179
 20
392.0
 30
0.0
 40
20.0
  1
60
 41
0.63
  7
EXCADSTD
 72
     1
 11
1418.7
 21
392.0
 31
0.0
100
AcDbText
  0
LINE
  5
392
330
38E
100
AcDbEntity
  8
寸法線
  6
Continuous
 62
     1
100
AcDbLine
 10
1388.7
 20
389.5
 30
0.0
 11
1448.7
 21
389.5
 31
0.0
  0
LINE
  5
393
330
38E
100
AcDbEntity
  8
寸法線
  6
Continuous
 62
     1
100
AcDbLine
 10
1403.7
 20
392.0
 30
0.0
 11
1388.7
 21
389.5
 31
0.0
  0
LINE
  5
394
330
38E
100
AcDbEntity
  8
寸法線
  6
Continuous
 62
     1
100
AcDbLine
 10
1388.7
 20
389.5
 30
0.0
 11
1403.7
 21
387.0
 31
0.0
  0
LINE
  5
395
330
38E
100
AcDbEntity
  8
寸法線
  6
Continuous
 62
     1
100
AcDbLine
 10
1433.7
 20
387.0
 30
0.0
 11
1448.7
 21
389.5
 31
0.0
  0
LINE
  5
396
330
38E
100
AcDbEntity
  8
寸法線
  6
Continuous
 62
     1
100
AcDbLine
 10
1448.7
 20
389.5
 30
0.0
 11
1433.7
 21
392.0
 31
0.0
  0
ENDBLK
  5
4FE
330
38E
100
AcDbEntity
  8
0
100
AcDbBlockEnd
  0
BLOCK
  5
4FF
330
399
100
AcDbEntity
  8
0
100
AcDbBlockBegin
  2
*D25
 70
     1
 10
0.0
 20
0.0
 30
0.0
  3
*D25
  1

  0
LINE
  5
39B
330
399
100
AcDbEntity
  8
寸法線
  6
Continuous
 62
     1
100
AcDbLine
 10
1306.7
 20
424.0
 30
0.0
 11
1306.7
 21
387.0
 31
0.0
  0
LINE
  5
39C
330
399
100
AcDbEntity
  8
寸法線
  6
Continuous
 62
     1
100
AcDbLine
 10
1321.7
 20
448.0
 30
0.0
 11
1321.7
 21
387.0
 31
0.0
  0
LINE
  5
39D
330
399
100
AcDbEntity
  8
寸法線
  6
Continuous
 62
     1
100
AcDbLine
 10
1263.499998
 20
389.5
 30
0.0
 11
1321.7
 21
389.5
 31
0.0
  0
LINE
  5
39E
330
399
100
AcDbEntity
  8
寸法線
  6
Continuous
 62
     1
100
AcDbLine
 10
1291.7
 20
387.0
 30
0.0
 11
1306.7
 21
389.5
 31
0.0
  0
LINE
  5
39F
330
399
100
AcDbEntity
  8
寸法線
  6
Continuous
 62
     1
100
AcDbLine
 10
1306.7
 20
389.5
 30
0.0
 11
1291.7
 21
392.0
 31
0.0
  0
TEXT
  5
3A0
330
399
100
AcDbEntity
  8
寸法線
  6
Continuous
 62
     1
100
AcDbText
 10
1270.479
 20
392.0
 30
0.0
 40
20.0
  1
15
 41
0.63
  7
EXCADSTD
 72
     1
 11
1281.0
 21
392.0
 31
0.0
100
AcDbText
  0
ENDBLK
  5
500
330
399
100
AcDbEntity
  8
0
100
AcDbBlockEnd
  0
BLOCK
  5
501
330
3A5
100
AcDbEntity
  8
0
100
AcDbBlockBegin
  2
*D26
 70
     1
 10
0.0
 20
0.0
 30
0.0
  3
*D26
  1

  0
LINE
  5
3A7
330
3A5
100
AcDbEntity
  8
寸法線
  6
Continuous
 62
     1
100
AcDbLine
 10
726.9
 20
1339.5
 30
0.0
 11
933.7
 21
1339.5
 31
0.0
  0
LINE
  5
3A8
330
3A5
100
AcDbEntity
  8
寸法線
  6
Continuous
 62
     1
100
AcDbLine
 10
741.9
 20
1342.0
 30
0.0
 11
726.9
 21
1339.5
 31
0.0
  0
LINE
  5
3A9
330
3A5
100
AcDbEntity
  8
寸法線
  6
Continuous
 62
     1
100
AcDbLine
 10
726.9
 20
1339.5
 30
0.0
 11
741.9
 21
1337.0
 31
0.0
  0
LINE
  5
3AA
330
3A5
100
AcDbEntity
  8
寸法線
  6
Continuous
 62
     1
100
AcDbLine
 10
918.7
 20
1337.0
 30
0.0
 11
933.7
 21
1339.5
 31
0.0
  0
LINE
  5
3AB
330
3A5
100
AcDbEntity
  8
寸法線
  6
Continuous
 62
     1
100
AcDbLine
 10
933.7
 20
1339.5
 30
0.0
 11
918.7
 21
1342.0
 31
0.0
  0
LINE
  5
3AC
330
3A5
100
AcDbEntity
  8
寸法線
  6
Continuous
 62
     1
100
AcDbLine
 10
726.9
 20
1259.8
 30
0.0
 11
726.9
 21
1342.0
 31
0.0
  0
LINE
  5
3AD
330
3A5
100
AcDbEntity
  8
寸法線
  6
Continuous
 62
     1
100
AcDbLine
 10
933.7
 20
1088.8
 30
0.0
 11
933.7
 21
1342.0
 31
0.0
  0
TEXT
  5
3AE
330
3A5
100
AcDbEntity
  8
寸法線
  6
Continuous
 62
     1
100
AcDbText
 10
801.57
 20
1342.0
 30
0.0
 40
20.0
  1
（207）
 50
360.0
 41
0.63
  7
EXCADSTD
 72
     1
 11
829.5
 21
1342.0
 31
0.0
100
AcDbText
  0
ENDBLK
  5
502
330
3A5
100
AcDbEntity
  8
0
100
AcDbBlockEnd
  0
BLOCK
  5
503
330
3B1
100
AcDbEntity
  8
0
100
AcDbBlockBegin
  2
*D27
 70
     1
 10
0.0
 20
0.0
 30
0.0
  3
*D27
  1

  0
LINE
  5
3B3
330
3B1
100
AcDbEntity
  8
寸法線
  6
Continuous
 62
     1
100
AcDbLine
 10
1008.0
 20
1086.3
 30
0.0
 11
1008.0
 21
846.3
 31
0.0
  0
LINE
  5
3B4
330
3B1
100
AcDbEntity
  8
寸法線
  6
Continuous
 62
     1
100
AcDbLine
 10
1010.5
 20
1071.3
 30
0.0
 11
1008.0
 21
1086.3
 31
0.0
  0
LINE
  5
3B5
330
3B1
100
AcDbEntity
  8
寸法線
  6
Continuous
 62
     1
100
AcDbLine
 10
1008.0
 20
1086.3
 30
0.0
 11
1005.5
 21
1071.3
 31
0.0
  0
LINE
  5
3B6
330
3B1
100
AcDbEntity
  8
寸法線
  6
Continuous
 62
     1
100
AcDbLine
 10
1005.5
 20
861.3
 30
0.0
 11
1008.0
 21
846.3
 31
0.0
  0
LINE
  5
3B7
330
3B1
100
AcDbEntity
  8
寸法線
  6
Continuous
 62
     1
100
AcDbLine
 10
1008.0
 20
846.3
 30
0.0
 11
1010.5
 21
861.3
 31
0.0
  0
TEXT
  5
3B8
330
3B1
100
AcDbEntity
  8
寸法線
  6
Continuous
 62
     1
100
AcDbText
 10
1005.5
 20
958.679
 30
0.0
 40
20.0
  1
240
 50
90.0
 41
0.63
  7
EXCADSTD
 72
     1
 11
1005.5
 21
975.5
 31
0.0
100
AcDbText
  0
LINE
  5
3B9
330
3B1
100
AcDbEntity
  8
寸法線
  6
Continuous
 62
     1
100
AcDbLine
 10
936.2
 20
1086.3
 30
0.0
 11
1010.5
 21
1086.3
 31
0.0
  0
LINE
  5
3BA
330
3B1
100
AcDbEntity
  8
寸法線
  6
Continuous
 62
     1
100
AcDbLine
 10
936.2
 20
846.3
 30
0.0
 11
1010.5
 21
846.3
 31
0.0
  0
ENDBLK
  5
504
330
3B1
100
AcDbEntity
  8
0
100
AcDbBlockEnd
  0
BLOCK
  5
505
330
3BD
100
AcDbEntity
  8
0
100
AcDbBlockBegin
  2
*D28
 70
     1
 10
0.0
 20
0.0
 30
0.0
  3
*D28
  1

  0
LINE
  5
3BF
330
3BD
100
AcDbEntity
  8
寸法線
  6
Continuous
 62
     1
100
AcDbLine
 10
1008.0
 20
802.3
 30
0.0
 11
1008.0
 21
846.3
 31
0.0
  0
LINE
  5
3C0
330
3BD
100
AcDbEntity
  8
寸法線
  6
Continuous
 62
     1
100
AcDbLine
 10
1005.5
 20
817.3
 30
0.0
 11
1008.0
 21
802.3
 31
0.0
  0
LINE
  5
3C1
330
3BD
100
AcDbEntity
  8
寸法線
  6
Continuous
 62
     1
100
AcDbLine
 10
1008.0
 20
802.3
 30
0.0
 11
1010.5
 21
817.3
 31
0.0
  0
LINE
  5
3C2
330
3BD
100
AcDbEntity
  8
寸法線
  6
Continuous
 62
     1
100
AcDbLine
 10
1010.5
 20
831.3
 30
0.0
 11
1008.0
 21
846.3
 31
0.0
  0
LINE
  5
3C3
330
3BD
100
AcDbEntity
  8
寸法線
  6
Continuous
 62
     1
100
AcDbLine
 10
1008.0
 20
846.3
 30
0.0
 11
1005.5
 21
831.3
 31
0.0
  0
TEXT
  5
3C4
330
3BD
100
AcDbEntity
  8
寸法線
  6
Continuous
 62
     1
100
AcDbText
 10
1005.5
 20
815.479
 30
0.0
 40
20.0
  1
44
 50
90.0
 41
0.63
  7
EXCADSTD
 72
     1
 11
1005.5
 21
826.0
 31
0.0
100
AcDbText
  0
LINE
  5
3C5
330
3BD
100
AcDbEntity
  8
寸法線
  6
Continuous
 62
     1
100
AcDbLine
 10
729.4
 20
802.3
 30
0.0
 11
1010.5
 21
802.3
 31
0.0
  0
LINE
  5
3C6
330
3BD
100
AcDbEntity
  8
寸法線
  6
Continuous
 62
     1
100
AcDbLine
 10
936.2
 20
846.3
 30
0.0
 11
1010.5
 21
846.3
 31
0.0
  0
ENDBLK
  5
506
330
3BD
100
AcDbEntity
  8
0
100
AcDbBlockEnd
  0
BLOCK
  5
507
330
3C9
100
AcDbEntity
  8
0
100
AcDbBlockBegin
  2
*D29
 70
     1
 10
0.0
 20
0.0
 30
0.0
  3
*D29
  1

  0
LINE
  5
3CB
330
3C9
100
AcDbEntity
  8
寸法線
  6
Continuous
 62
     1
100
AcDbLine
 10
1478.7
 20
1088.8
 30
0.0
 11
1478.7
 21
1173.5
 31
0.0
  0
LINE
  5
3CC
330
3C9
100
AcDbEntity
  8
寸法線
  6
Continuous
 62
     1
100
AcDbLine
 10
1539.4
 20
1088.8
 30
0.0
 11
1539.4
 21
1173.5
 31
0.0
  0
LINE
  5
3CD
330
3C9
100
AcDbEntity
  8
寸法線
  6
Continuous
 62
     1
100
AcDbLine
 10
1473.1
 20
1171.0
 30
0.0
 11
1545.0
 21
1171.0
 31
0.0
  0
LINE
  5
3CE
330
3C9
100
AcDbEntity
  8
寸法線
  6
Continuous
 62
     1
100
AcDbLine
 10
1463.7
 20
1168.5
 30
0.0
 11
1478.7
 21
1171.0
 31
0.0
  0
LINE
  5
3CF
330
3C9
100
AcDbEntity
  8
寸法線
  6
Continuous
 62
     1
100
AcDbLine
 10
1478.7
 20
1171.0
 30
0.0
 11
1463.7
 21
1173.5
 31
0.0
  0
LINE
  5
3D0
330
3C9
100
AcDbEntity
  8
寸法線
  6
Continuous
 62
     1
100
AcDbLine
 10
1554.4
 20
1173.5
 30
0.0
 11
1539.4
 21
1171.0
 31
0.0
  0
LINE
  5
3D1
330
3C9
100
AcDbEntity
  8
寸法線
  6
Continuous
 62
     1
100
AcDbLine
 10
1539.4
 20
1171.0
 30
0.0
 11
1554.4
 21
1168.5
 31
0.0
  0
TEXT
  5
3D2
330
3C9
100
AcDbEntity
  8
寸法線
  6
Continuous
 62
     1
100
AcDbText
 10
1487.07
 20
1173.5
 30
0.0
 40
20.0
  1
（61）
 41
0.63
  7
EXCADSTD
 72
     1
 11
1508.7
 21
1173.5
 31
0.0
100
AcDbText
  0
ENDBLK
  5
508
330
3C9
100
AcDbEntity
  8
0
100
AcDbBlockEnd
  0
BLOCK
  5
509
330
3D5
100
AcDbEntity
  8
0
100
AcDbBlockBegin
  2
*D30
 70
     1
 10
0.0
 20
0.0
 30
0.0
  3
*D30
  1

  0
LINE
  5
3D7
330
3D5
100
AcDbEntity
  8
寸法線
  6
Continuous
 62
     1
100
AcDbLine
 10
661.9
 20
624.0
 30
0.0
 11
571.9
 21
624.0
 31
0.0
  0
LINE
  5
3D8
330
3D5
100
AcDbEntity
  8
寸法線
  6
Continuous
 62
     1
100
AcDbLine
 10
646.9
 20
621.5
 30
0.0
 11
661.9
 21
624.0
 31
0.0
  0
LINE
  5
3D9
330
3D5
100
AcDbEntity
  8
寸法線
  6
Continuous
 62
     1
100
AcDbLine
 10
661.9
 20
624.0
 30
0.0
 11
646.9
 21
626.5
 31
0.0
  0
LINE
  5
3DA
330
3D5
100
AcDbEntity
  8
寸法線
  6
Continuous
 62
     1
100
AcDbLine
 10
586.9
 20
626.5
 30
0.0
 11
571.9
 21
624.0
 31
0.0
  0
LINE
  5
3DB
330
3D5
100
AcDbEntity
  8
寸法線
  6
Continuous
 62
     1
100
AcDbLine
 10
571.9
 20
624.0
 30
0.0
 11
586.9
 21
621.5
 31
0.0
  0
TEXT
  5
3DC
330
3D5
100
AcDbEntity
  8
寸法線
  6
Continuous
 62
     1
100
AcDbText
 10
606.479
 20
626.5
 30
0.0
 40
20.0
  1
90
 41
0.63
  7
EXCADSTD
 72
     1
 11
617.0
 21
626.5
 31
0.0
100
AcDbText
  0
LINE
  5
3DD
330
3D5
100
AcDbEntity
  8
寸法線
  6
Continuous
 62
     1
100
AcDbLine
 10
661.9
 20
594.5
 30
0.0
 11
661.9
 21
626.5
 31
0.0
  0
LINE
  5
3DE
330
3D5
100
AcDbEntity
  8
寸法線
  6
Continuous
 62
     1
100
AcDbLine
 10
571.9
 20
594.5
 30
0.0
 11
571.9
 21
626.5
 31
0.0
  0
ENDBLK
  5
50A
330
3D5
100
AcDbEntity
  8
0
100
AcDbBlockEnd
  0
BLOCK
  5
50B
330
3E1
100
AcDbEntity
  8
0
100
AcDbBlockBegin
  2
*D31
 70
     1
 10
0.0
 20
0.0
 30
0.0
  3
*D31
  1

  0
LINE
  5
3E3
330
3E1
100
AcDbEntity
  8
寸法線
  6
Continuous
 62
     1
100
AcDbLine
 10
682.4
 20
419.0
 30
0.0
 11
551.4
 21
419.0
 31
0.0
  0
LINE
  5
3E4
330
3E1
100
AcDbEntity
  8
寸法線
  6
Continuous
 62
     1
100
AcDbLine
 10
667.4
 20
416.5
 30
0.0
 11
682.4
 21
419.0
 31
0.0
  0
LINE
  5
3E5
330
3E1
100
AcDbEntity
  8
寸法線
  6
Continuous
 62
     1
100
AcDbLine
 10
682.4
 20
419.0
 30
0.0
 11
667.4
 21
421.5
 31
0.0
  0
LINE
  5
3E6
330
3E1
100
AcDbEntity
  8
寸法線
  6
Continuous
 62
     1
100
AcDbLine
 10
566.4
 20
421.5
 30
0.0
 11
551.4
 21
419.0
 31
0.0
  0
LINE
  5
3E7
330
3E1
100
AcDbEntity
  8
寸法線
  6
Continuous
 62
     1
100
AcDbLine
 10
551.4
 20
419.0
 30
0.0
 11
566.4
 21
416.5
 31
0.0
  0
TEXT
  5
3E8
330
3E1
100
AcDbEntity
  8
寸法線
  6
Continuous
 62
     1
100
AcDbText
 10
606.75
 20
421.5
 30
0.0
 40
20.0
  1
131
 41
0.63
  7
EXCADSTD
 72
     1
 11
622.5
 21
421.5
 31
0.0
100
AcDbText
  0
LINE
  5
3E9
330
3E1
100
AcDbEntity
  8
寸法線
  6
Continuous
 62
     1
100
AcDbLine
 10
682.4
 20
519.5
 30
0.0
 11
682.4
 21
416.5
 31
0.0
  0
LINE
  5
3EA
330
3E1
100
AcDbEntity
  8
寸法線
  6
Continuous
 62
     1
100
AcDbLine
 10
551.4
 20
519.5
 30
0.0
 11
551.4
 21
416.5
 31
0.0
  0
ENDBLK
  5
50C
330
3E1
100
AcDbEntity
  8
0
100
AcDbBlockEnd
  0
BLOCK
  5
50D
330
3ED
100
AcDbEntity
  8
0
100
AcDbBlockBegin
  2
*D32
 70
     1
 10
0.0
 20
0.0
 30
0.0
  3
*D32
  1

  0
LINE
  5
3EF
330
3ED
100
AcDbEntity
  8
寸法線
  6
Continuous
 62
     1
100
AcDbLine
 10
572.4
 20
453.0
 30
0.0
 11
661.4
 21
453.0
 31
0.0
  0
LINE
  5
3F0
330
3ED
100
AcDbEntity
  8
寸法線
  6
Continuous
 62
     1
100
AcDbLine
 10
587.4
 20
455.5
 30
0.0
 11
572.4
 21
453.0
 31
0.0
  0
LINE
  5
3F1
330
3ED
100
AcDbEntity
  8
寸法線
  6
Continuous
 62
     1
100
AcDbLine
 10
572.4
 20
453.0
 30
0.0
 11
587.4
 21
450.5
 31
0.0
  0
LINE
  5
3F2
330
3ED
100
AcDbEntity
  8
寸法線
  6
Continuous
 62
     1
100
AcDbLine
 10
646.4
 20
450.5
 30
0.0
 11
661.4
 21
453.0
 31
0.0
  0
LINE
  5
3F3
330
3ED
100
AcDbEntity
  8
寸法線
  6
Continuous
 62
     1
100
AcDbLine
 10
661.4
 20
453.0
 30
0.0
 11
646.4
 21
455.5
 31
0.0
  0
TEXT
  5
3F4
330
3ED
100
AcDbEntity
  8
寸法線
  6
Continuous
 62
     1
100
AcDbText
 10
607.979
 20
455.5
 30
0.0
 40
20.0
  1
89
 41
0.63
  7
EXCADSTD
 72
     1
 11
618.5
 21
455.5
 31
0.0
100
AcDbText
  0
LINE
  5
3F5
330
3ED
100
AcDbEntity
  8
寸法線
  6
Continuous
 62
     1
100
AcDbLine
 10
572.4
 20
523.1
 30
0.0
 11
572.4
 21
450.5
 31
0.0
  0
LINE
  5
3F6
330
3ED
100
AcDbEntity
  8
寸法線
  6
Continuous
 62
     1
100
AcDbLine
 10
661.4
 20
524.3
 30
0.0
 11
661.4
 21
450.5
 31
0.0
  0
ENDBLK
  5
50E
330
3ED
100
AcDbEntity
  8
0
100
AcDbBlockEnd
  0
BLOCK
  5
50F
330
3F9
100
AcDbEntity
  8
0
100
AcDbBlockBegin
  2
*D33
 70
     1
 10
0.0
 20
0.0
 30
0.0
  3
*D33
  1

  0
LINE
  5
3FB
330
3F9
100
AcDbEntity
  8
寸法線
  6
Continuous
 62
     1
100
AcDbLine
 10
652.4
 20
485.5
 30
0.0
 11
581.4
 21
485.5
 31
0.0
  0
LINE
  5
3FC
330
3F9
100
AcDbEntity
  8
寸法線
  6
Continuous
 62
     1
100
AcDbLine
 10
637.4
 20
483.0
 30
0.0
 11
652.4
 21
485.5
 31
0.0
  0
LINE
  5
3FD
330
3F9
100
AcDbEntity
  8
寸法線
  6
Continuous
 62
     1
100
AcDbLine
 10
652.4
 20
485.5
 30
0.0
 11
637.4
 21
488.0
 31
0.0
  0
LINE
  5
3FE
330
3F9
100
AcDbEntity
  8
寸法線
  6
Continuous
 62
     1
100
AcDbLine
 10
596.4
 20
488.0
 30
0.0
 11
581.4
 21
485.5
 31
0.0
  0
LINE
  5
3FF
330
3F9
100
AcDbEntity
  8
寸法線
  6
Continuous
 62
     1
100
AcDbLine
 10
581.4
 20
485.5
 30
0.0
 11
596.4
 21
483.0
 31
0.0
  0
TEXT
  5
400
330
3F9
100
AcDbEntity
  8
寸法線
  6
Continuous
 62
     1
100
AcDbText
 10
608.05
 20
488.0
 30
0.0
 40
20.0
  1
71
 41
0.63
  7
EXCADSTD
 72
     1
 11
617.5
 21
488.0
 31
0.0
100
AcDbText
  0
LINE
  5
401
330
3F9
100
AcDbEntity
  8
寸法線
  6
Continuous
 62
     1
100
AcDbLine
 10
652.4
 20
523.5
 30
0.0
 11
652.4
 21
483.0
 31
0.0
  0
LINE
  5
402
330
3F9
100
AcDbEntity
  8
寸法線
  6
Continuous
 62
     1
100
AcDbLine
 10
581.4
 20
523.5
 30
0.0
 11
581.4
 21
483.0
 31
0.0
  0
ENDBLK
  5
510
330
3F9
100
AcDbEntity
  8
0
100
AcDbBlockEnd
  0
BLOCK
  5
511
330
405
100
AcDbEntity
  8
0
100
AcDbBlockBegin
  2
*D34
 70
     1
 10
0.0
 20
0.0
 30
0.0
  3
*D34
  1

  0
LINE
  5
407
330
405
100
AcDbEntity
  8
寸法線
  6
Continuous
 62
     1
100
AcDbLine
 10
785.5
 20
520.0
 30
0.0
 11
785.5
 21
592.0
 31
0.0
  0
LINE
  5
408
330
405
100
AcDbEntity
  8
寸法線
  6
Continuous
 62
     1
100
AcDbLine
 10
783.0
 20
535.0
 30
0.0
 11
785.5
 21
520.0
 31
0.0
  0
LINE
  5
409
330
405
100
AcDbEntity
  8
寸法線
  6
Continuous
 62
     1
100
AcDbLine
 10
785.5
 20
520.0
 30
0.0
 11
788.0
 21
535.0
 31
0.0
  0
LINE
  5
40A
330
405
100
AcDbEntity
  8
寸法線
  6
Continuous
 62
     1
100
AcDbLine
 10
788.0
 20
577.0
 30
0.0
 11
785.5
 21
592.0
 31
0.0
  0
LINE
  5
40B
330
405
100
AcDbEntity
  8
寸法線
  6
Continuous
 62
     1
100
AcDbLine
 10
785.5
 20
592.0
 30
0.0
 11
783.0
 21
577.0
 31
0.0
  0
TEXT
  5
40C
330
405
100
AcDbEntity
  8
寸法線
  6
Continuous
 62
     1
100
AcDbText
 10
783.0
 20
546.479
 30
0.0
 40
20.0
  1
72
 50
90.0
 41
0.63
  7
EXCADSTD
 72
     1
 11
783.0
 21
557.0
 31
0.0
100
AcDbText
  0
LINE
  5
40D
330
405
100
AcDbEntity
  8
寸法線
  6
Continuous
 62
     1
100
AcDbLine
 10
682.9
 20
520.0
 30
0.0
 11
788.0
 21
520.0
 31
0.0
  0
LINE
  5
40E
330
405
100
AcDbEntity
  8
寸法線
  6
Continuous
 62
     1
100
AcDbLine
 10
664.4
 20
592.0
 30
0.0
 11
788.0
 21
592.0
 31
0.0
  0
ENDBLK
  5
512
330
405
100
AcDbEntity
  8
0
100
AcDbBlockEnd
  0
BLOCK
  5
513
330
414
100
AcDbEntity
  8
0
100
AcDbBlockBegin
  2
*D35
 70
     1
 10
0.0
 20
0.0
 30
0.0
  3
*D35
  1

  0
LINE
  5
416
330
414
100
AcDbEntity
  8
寸法線
  6
Continuous
 62
     1
100
AcDbLine
 10
664.4
 20
592.0
 30
0.0
 11
737.5
 21
592.0
 31
0.0
  0
LINE
  5
417
330
414
100
AcDbEntity
  8
寸法線
  6
Continuous
 62
     1
100
AcDbLine
 10
658.8
 20
552.0
 30
0.0
 11
737.5
 21
552.0
 31
0.0
  0
LINE
  5
418
330
414
100
AcDbEntity
  8
寸法線
  6
Continuous
 62
     1
100
AcDbLine
 10
735.0
 20
592.0
 30
0.0
 11
735.0
 21
552.0
 31
0.0
  0
LINE
  5
419
330
414
100
AcDbEntity
  8
寸法線
  6
Continuous
 62
     1
100
AcDbLine
 10
737.5
 20
577.0
 30
0.0
 11
735.0
 21
592.0
 31
0.0
  0
LINE
  5
41A
330
414
100
AcDbEntity
  8
寸法線
  6
Continuous
 62
     1
100
AcDbLine
 10
735.0
 20
592.0
 30
0.0
 11
732.5
 21
577.0
 31
0.0
  0
LINE
  5
41B
330
414
100
AcDbEntity
  8
寸法線
  6
Continuous
 62
     1
100
AcDbLine
 10
732.5
 20
567.0
 30
0.0
 11
735.0
 21
552.0
 31
0.0
  0
LINE
  5
41C
330
414
100
AcDbEntity
  8
寸法線
  6
Continuous
 62
     1
100
AcDbLine
 10
735.0
 20
552.0
 30
0.0
 11
737.5
 21
567.0
 31
0.0
  0
TEXT
  5
41D
330
414
100
AcDbEntity
  8
寸法線
  6
Continuous
 62
     1
100
AcDbText
 10
732.5
 20
562.979
 30
0.0
 40
20.0
  1
40
 50
90.0
 41
0.63
  7
EXCADSTD
 72
     1
 11
732.5
 21
573.5
 31
0.0
100
AcDbText
  0
ENDBLK
  5
514
330
414
100
AcDbEntity
  8
0
100
AcDbBlockEnd
  0
BLOCK
  5
515
330
420
100
AcDbEntity
  8
0
100
AcDbBlockBegin
  2
*D36
 70
     1
 10
0.0
 20
0.0
 30
0.0
  3
*D36
  1

  0
LINE
  5
422
330
420
100
AcDbEntity
  8
寸法線
  6
Continuous
 62
     1
100
AcDbLine
 10
853.7
 20
1088.8
 30
0.0
 11
853.7
 21
1191.0
 31
0.0
  0
LINE
  5
423
330
420
100
AcDbEntity
  8
寸法線
  6
Continuous
 62
     1
100
AcDbLine
 10
853.7
 20
1188.5
 30
0.0
 11
726.9
 21
1188.5
 31
0.0
  0
LINE
  5
424
330
420
100
AcDbEntity
  8
寸法線
  6
Continuous
 62
     1
100
AcDbLine
 10
838.7
 20
1186.0
 30
0.0
 11
853.7
 21
1188.5
 31
0.0
  0
LINE
  5
425
330
420
100
AcDbEntity
  8
寸法線
  6
Continuous
 62
     1
100
AcDbLine
 10
853.7
 20
1188.5
 30
0.0
 11
838.7
 21
1191.0
 31
0.0
  0
LINE
  5
426
330
420
100
AcDbEntity
  8
寸法線
  6
Continuous
 62
     1
100
AcDbLine
 10
741.9
 20
1191.0
 30
0.0
 11
726.9
 21
1188.5
 31
0.0
  0
LINE
  5
427
330
420
100
AcDbEntity
  8
寸法線
  6
Continuous
 62
     1
100
AcDbLine
 10
726.9
 20
1188.5
 30
0.0
 11
741.9
 21
1186.0
 31
0.0
  0
TEXT
  5
428
330
420
100
AcDbEntity
  8
寸法線
  6
Continuous
 62
     1
100
AcDbText
 10
768.57
 20
1191.0
 30
0.0
 40
20.0
  1
（127）
 41
0.63
  7
EXCADSTD
 72
     1
 11
796.5
 21
1191.0
 31
0.0
100
AcDbText
  0
ENDBLK
  5
516
330
420
100
AcDbEntity
  8
0
100
AcDbBlockEnd
  0
ENDSEC
  0
SECTION
  2
ENTITIES
  0
LINE
  5
8C
330
1F
100
AcDbEntity
  8
補助線
  6
Continuous
 62
     4
100
AcDbLine
 10
714.3
 20
1036.3
 30
0.0
 11
764.75
 21
1036.3
 31
0.0
  0
LINE
  5
8D
330
1F
100
AcDbEntity
  8
補助線
  6
Continuous
 62
     4
100
AcDbLine
 10
726.9
 20
1026.3
 30
0.0
 11
728.9
 21
1026.3
 31
0.0
  0
LINE
  5
8E
330
1F
100
AcDbEntity
  8
補助線
  6
Continuous
 62
     4
100
AcDbLine
 10
726.9
 20
1046.3
 30
0.0
 11
726.9
 21
1026.3
 31
0.0
  0
LINE
  5
8F
330
1F
100
AcDbEntity
  8
補助線
  6
Continuous
 62
     4
100
AcDbLine
 10
726.9
 20
1046.3
 30
0.0
 11
728.9
 21
1046.3
 31
0.0
  0
LINE
  5
90
330
1F
100
AcDbEntity
  8
補助線
  6
Continuous
 62
     4
100
AcDbLine
 10
714.3
 20
966.3
 30
0.0
 11
764.75
 21
966.3
 31
0.0
  0
LINE
  5
91
330
1F
100
AcDbEntity
  8
補助線
  6
Continuous
 62
     4
100
AcDbLine
 10
726.9
 20
956.3
 30
0.0
 11
728.9
 21
956.3
 31
0.0
  0
LINE
  5
51D
330
1F
100
AcDbEntity
  8
補助線
  6
Continuous
 62
     4
100
AcDbLine
 10
726.9
 20
976.3
 30
0.0
 11
726.9
 21
956.3
 31
0.0
  0
LINE
  5
51E
330
1F
100
AcDbEntity
  8
補助線
  6
Continuous
 62
     4
100
AcDbLine
 10
726.9
 20
976.3
 30
0.0
 11
728.9
 21
976.3
 31
0.0
  0
LINE
  5
94
330
1F
100
AcDbEntity
  8
補助線
  6
Continuous
 62
     4
100
AcDbLine
 10
714.3
 20
896.3
 30
0.0
 11
764.75
 21
896.3
 31
0.0
  0
LINE
  5
95
330
1F
100
AcDbEntity
  8
補助線
  6
Continuous
 62
     4
100
AcDbLine
 10
726.9
 20
886.3
 30
0.0
 11
728.9
 21
886.3
 31
0.0
  0
LINE
  5
96
330
1F
100
AcDbEntity
  8
補助線
  6
Continuous
 62
     4
100
AcDbLine
 10
726.9
 20
906.3
 30
0.0
 11
726.9
 21
886.3
 31
0.0
  0
LINE
  5
51F
330
1F
100
AcDbEntity
  8
補助線
  6
Continuous
 62
     4
100
AcDbLine
 10
726.9
 20
906.3
 30
0.0
 11
728.9
 21
906.3
 31
0.0
  0
LINE
  5
520
330
1F
100
AcDbEntity
  8
補助線
  6
Continuous
 62
     4
100
AcDbLine
 10
746.9
 20
1046.3
 30
0.0
 11
746.9
 21
1026.3
 31
0.0
  0
LINE
  5
521
330
1F
100
AcDbEntity
  8
補助線
  6
Continuous
 62
     4
100
AcDbLine
 10
744.9
 20
1046.3
 30
0.0
 11
744.9
 21
1026.3
 31
0.0
  0
LINE
  5
522
330
1F
100
AcDbEntity
  8
補助線
  6
Continuous
 62
     4
100
AcDbLine
 10
728.9
 20
1043.8
 30
0.0
 11
744.9
 21
1043.8
 31
0.0
  0
LINE
  5
523
330
1F
100
AcDbEntity
  8
補助線
  6
Continuous
 62
     4
100
AcDbLine
 10
728.9
 20
1028.8
 30
0.0
 11
744.9
 21
1028.8
 31
0.0
  0
LINE
  5
524
330
1F
100
AcDbEntity
  8
補助線
  6
Continuous
 62
     4
100
AcDbLine
 10
744.9
 20
1026.3
 30
0.0
 11
746.9
 21
1026.3
 31
0.0
  0
LINE
  5
525
330
1F
100
AcDbEntity
  8
補助線
  6
Continuous
 62
     4
100
AcDbLine
 10
728.9
 20
1046.3
 30
0.0
 11
728.9
 21
1026.3
 31
0.0
  0
LINE
  5
526
330
1F
100
AcDbEntity
  8
補助線
  6
Continuous
 62
     4
100
AcDbLine
 10
744.9
 20
1046.3
 30
0.0
 11
746.9
 21
1046.3
 31
0.0
  0
LINE
  5
527
330
1F
100
AcDbEntity
  8
補助線
  6
Continuous
 62
     4
100
AcDbLine
 10
746.9
 20
976.3
 30
0.0
 11
746.9
 21
956.3
 31
0.0
  0
LINE
  5
528
330
1F
100
AcDbEntity
  8
補助線
  6
Continuous
 62
     4
100
AcDbLine
 10
744.9
 20
976.3
 30
0.0
 11
744.9
 21
956.3
 31
0.0
  0
LINE
  5
529
330
1F
100
AcDbEntity
  8
補助線
  6
Continuous
 62
     4
100
AcDbLine
 10
728.9
 20
973.8
 30
0.0
 11
744.9
 21
973.8
 31
0.0
  0
LINE
  5
52A
330
1F
100
AcDbEntity
  8
補助線
  6
Continuous
 62
     4
100
AcDbLine
 10
728.9
 20
958.8
 30
0.0
 11
744.9
 21
958.8
 31
0.0
  0
LINE
  5
52B
330
1F
100
AcDbEntity
  8
補助線
  6
Continuous
 62
     4
100
AcDbLine
 10
744.9
 20
956.3
 30
0.0
 11
746.9
 21
956.3
 31
0.0
  0
LINE
  5
52C
330
1F
100
AcDbEntity
  8
補助線
  6
Continuous
 62
     4
100
AcDbLine
 10
728.9
 20
976.3
 30
0.0
 11
728.9
 21
956.3
 31
0.0
  0
LINE
  5
52D
330
1F
100
AcDbEntity
  8
補助線
  6
Continuous
 62
     4
100
AcDbLine
 10
744.9
 20
976.3
 30
0.0
 11
746.9
 21
976.3
 31
0.0
  0
LINE
  5
52E
330
1F
100
AcDbEntity
  8
補助線
  6
Continuous
 62
     4
100
AcDbLine
 10
746.9
 20
906.3
 30
0.0
 11
746.9
 21
886.3
 31
0.0
  0
LINE
  5
52F
330
1F
100
AcDbEntity
  8
補助線
  6
Continuous
 62
     4
100
AcDbLine
 10
744.9
 20
906.3
 30
0.0
 11
744.9
 21
886.3
 31
0.0
  0
LINE
  5
530
330
1F
100
AcDbEntity
  8
補助線
  6
Continuous
 62
     4
100
AcDbLine
 10
728.9
 20
903.8
 30
0.0
 11
744.9
 21
903.8
 31
0.0
  0
LINE
  5
531
330
1F
100
AcDbEntity
  8
補助線
  6
Continuous
 62
     4
100
AcDbLine
 10
728.9
 20
888.8
 30
0.0
 11
744.9
 21
888.8
 31
0.0
  0
LINE
  5
532
330
1F
100
AcDbEntity
  8
補助線
  6
Continuous
 62
     4
100
AcDbLine
 10
744.9
 20
886.3
 30
0.0
 11
746.9
 21
886.3
 31
0.0
  0
LINE
  5
533
330
1F
100
AcDbEntity
  8
補助線
  6
Continuous
 62
     4
100
AcDbLine
 10
728.9
 20
906.3
 30
0.0
 11
728.9
 21
886.3
 31
0.0
  0
LINE
  5
534
330
1F
100
AcDbEntity
  8
補助線
  6
Continuous
 62
     4
100
AcDbLine
 10
744.9
 20
906.3
 30
0.0
 11
746.9
 21
906.3
 31
0.0
  0
LINE
  5
535
330
1F
100
AcDbEntity
  8
補助線
  6
Continuous
 62
     4
100
AcDbLine
 10
749.2
 20
1066.3
 30
0.0
 11
731.2
 21
1066.3
 31
0.0
  0
LINE
  5
536
330
1F
100
AcDbEntity
  8
補助線
  6
Continuous
 62
     4
100
AcDbLine
 10
749.2
 20
866.3
 30
0.0
 11
731.2
 21
866.3
 31
0.0
  0
LINE
  5
537
330
1F
100
AcDbEntity
  8
補助線
  6
Continuous
 62
     4
100
AcDbLine
 10
749.2
 20
866.3
 30
0.0
 11
749.2
 21
1066.3
 31
0.0
  0
LINE
  5
538
330
1F
100
AcDbEntity
  8
補助線
  6
Continuous
 62
     4
100
AcDbLine
 10
731.2
 20
866.3
 30
0.0
 11
731.2
 21
1066.3
 31
0.0
  0
LINE
  5
539
330
1F
100
AcDbEntity
  8
補助線
  6
Continuous
 62
     4
100
AcDbLine
 10
746.9
 20
866.3
 30
0.0
 11
746.9
 21
1066.3
 31
0.0
  0
LINE
  5
53A
330
1F
100
AcDbEntity
  8
補助線
  6
Continuous
 62
     4
100
AcDbLine
 10
761.2
 20
871.3
 30
0.0
 11
737.0
 21
871.3
 31
0.0
  0
LINE
  5
53B
330
1F
100
AcDbEntity
  8
補助線
  6
Continuous
 62
     4
100
AcDbLine
 10
761.6
 20
896.3
 30
0.0
 11
735.2
 21
896.3
 31
0.0
  0
LINE
  5
53C
330
1F
100
AcDbEntity
  8
補助線
  6
Continuous
 62
     4
100
AcDbLine
 10
761.4
 20
936.3
 30
0.0
 11
736.6
 21
936.3
 31
0.0
  0
LINE
  5
53D
330
1F
100
AcDbEntity
  8
補助線
  6
Continuous
 62
     4
100
AcDbLine
 10
761.8
 20
966.3
 30
0.0
 11
735.8
 21
966.3
 31
0.0
  0
LINE
  5
53E
330
1F
100
AcDbEntity
  8
補助線
  6
Continuous
 62
     4
100
AcDbLine
 10
762.2
 20
996.3
 30
0.0
 11
735.2
 21
996.3
 31
0.0
  0
LINE
  5
53F
330
1F
100
AcDbEntity
  8
補助線
  6
Continuous
 62
     4
100
AcDbLine
 10
762.4
 20
1036.3
 30
0.0
 11
735.8
 21
1036.3
 31
0.0
  0
LINE
  5
540
330
1F
100
AcDbEntity
  8
補助線
  6
Continuous
 62
     4
100
AcDbLine
 10
761.6
 20
1061.3
 30
0.0
 11
736.6
 21
1061.3
 31
0.0
  0
LWPOLYLINE
  5
541
330
1F
100
AcDbEntity
  8
補助線
  6
Continuous
 62
     4
100
AcDbPolyline
 90
        3
 70
   128
 43
0.0
 10
759.2
 20
1066.3
 10
749.2
 20
1066.3
 10
749.2
 20
991.3
  0
LWPOLYLINE
  5
BE
330
1F
100
AcDbEntity
  8
補助線
  6
Continuous
 62
     4
100
AcDbPolyline
 90
        2
 70
   128
 43
0.0
 10
772.7
 20
1001.3
 10
772.7
 20
1056.3
  0
LWPOLYLINE
  5
C2
330
1F
100
AcDbEntity
  8
補助線
  6
Continuous
 62
     4
100
AcDbPolyline
 90
        2
 70
   128
 43
0.0
 10
749.2
 20
991.3
 10
759.2
 20
991.3
  0
LINE
  5
C6
330
1F
100
AcDbEntity
  8
補助線
  6
Continuous
 62
     4
100
AcDbLine
 10
759.2
 20
1066.3
 30
0.0
 11
759.2
 21
1056.3
 31
0.0
  0
LINE
  5
C7
330
1F
100
AcDbEntity
  8
補助線
  6
Continuous
 62
     4
100
AcDbLine
 10
759.2
 20
1001.3
 30
0.0
 11
759.2
 21
991.3
 31
0.0
  0
LINE
  5
C8
330
1F
100
AcDbEntity
  8
補助線
  6
Continuous
 62
     4
100
AcDbLine
 10
771.25
 20
1061.3
 30
0.0
 11
740.2
 21
1061.3
 31
0.0
  0
LINE
  5
C9
330
1F
100
AcDbEntity
  8
補助線
  6
Continuous
 62
     4
100
AcDbLine
 10
740.4
 20
996.3
 30
0.0
 11
770.5
 21
996.3
 31
0.0
  0
LINE
  5
CA
330
1F
100
AcDbEntity
  8
補助線
  6
Continuous
 62
     4
100
AcDbLine
 10
755.25
 20
1013.8
 30
0.0
 11
770.15
 21
1013.8
 31
0.0
  0
LINE
  5
CB
330
1F
100
AcDbEntity
  8
補助線
  6
Continuous
 62
     4
100
AcDbLine
 10
755.25
 20
1043.8
 30
0.0
 11
770.15
 21
1043.8
 31
0.0
  0
LINE
  5
CC
330
1F
100
AcDbEntity
  8
補助線
  6
Continuous
 62
     4
100
AcDbLine
 10
762.7
 20
1052.9
 30
0.0
 11
762.7
 21
1006.05
 31
0.0
  0
LWPOLYLINE
  5
CD
330
1F
100
AcDbEntity
  8
補助線
  6
Continuous
 62
     4
100
AcDbPolyline
 90
        3
 70
   128
 43
0.0
 10
759.2
 20
941.3
 10
749.2
 20
941.3
 10
749.2
 20
866.3
  0
LWPOLYLINE
  5
D2
330
1F
100
AcDbEntity
  8
補助線
  6
Continuous
 62
     4
100
AcDbPolyline
 90
        2
 70
   128
 43
0.0
 10
772.7
 20
876.3
 10
772.7
 20
931.3
  0
LWPOLYLINE
  5
D6
330
1F
100
AcDbEntity
  8
補助線
  6
Continuous
 62
     4
100
AcDbPolyline
 90
        2
 70
   128
 43
0.0
 10
749.2
 20
866.3
 10
759.2
 20
866.3
  0
LINE
  5
DA
330
1F
100
AcDbEntity
  8
補助線
  6
Continuous
 62
     4
100
AcDbLine
 10
759.2
 20
876.3
 30
0.0
 11
772.7
 21
876.3
 31
0.0
  0
LINE
  5
DB
330
1F
100
AcDbEntity
  8
補助線
  6
Continuous
 62
     4
100
AcDbLine
 10
772.7
 20
931.3
 30
0.0
 11
759.2
 21
931.3
 31
0.0
  0
LINE
  5
DC
330
1F
100
AcDbEntity
  8
補助線
  6
Continuous
 62
     4
100
AcDbLine
 10
759.2
 20
941.3
 30
0.0
 11
759.2
 21
931.3
 31
0.0
  0
LINE
  5
DD
330
1F
100
AcDbEntity
  8
補助線
  6
Continuous
 62
     4
100
AcDbLine
 10
759.2
 20
876.3
 30
0.0
 11
759.2
 21
866.3
 31
0.0
  0
LINE
  5
DE
330
1F
100
AcDbEntity
  8
補助線
  6
Continuous
 62
     4
100
AcDbLine
 10
771.25
 20
936.3
 30
0.0
 11
740.2
 21
936.3
 31
0.0
  0
LINE
  5
DF
330
1F
100
AcDbEntity
  8
補助線
  6
Continuous
 62
     4
100
AcDbLine
 10
740.4
 20
871.3
 30
0.0
 11
770.5
 21
871.3
 31
0.0
  0
LINE
  5
E0
330
1F
100
AcDbEntity
  8
補助線
  6
Continuous
 62
     4
100
AcDbLine
 10
755.25
 20
888.8
 30
0.0
 11
770.15
 21
888.8
 31
0.0
  0
LINE
  5
E1
330
1F
100
AcDbEntity
  8
補助線
  6
Continuous
 62
     4
100
AcDbLine
 10
755.25
 20
918.8
 30
0.0
 11
770.15
 21
918.8
 31
0.0
  0
LINE
  5
E2
330
1F
100
AcDbEntity
  8
補助線
  6
Continuous
 62
     4
100
AcDbLine
 10
762.7
 20
927.9
 30
0.0
 11
762.7
 21
881.05
 31
0.0
  0
LINE
  5
E3
330
1F
100
AcDbEntity
  8
補助線
  6
EXLTYPE3
 62
     3
100
AcDbLine
 10
1356.9
 20
966.3
 30
0.0
 11
1409.0
 21
966.3
 31
0.0
  0
LINE
  5
E4
330
1F
100
AcDbEntity
  8
補助線
  6
EXLTYPE3
 62
     3
100
AcDbLine
 10
1363.4
 20
951.991685
 30
0.0
 11
1363.4
 21
982.391685
 31
0.0
  0
LINE
  5
E5
330
1F
100
AcDbEntity
  8
補助線
  6
EXLTYPE3
 62
     3
100
AcDbLine
 10
1399.4
 20
951.991685
 30
0.0
 11
1399.4
 21
982.391685
 31
0.0
  0
LINE
  5
E6
330
1F
100
AcDbEntity
  8
補助線
  6
EXLTYPE3
 62
     3
100
AcDbLine
 10
1433.4
 20
1050.608315
 30
0.0
 11
1433.4
 21
1020.208315
 31
0.0
  0
LINE
  5
E7
330
1F
100
AcDbEntity
  8
補助線
  6
EXLTYPE3
 62
     3
100
AcDbLine
 10
1424.2
 20
1036.3
 30
0.0
 11
1476.4
 21
1036.3
 31
0.0
  0
LINE
  5
E8
330
1F
100
AcDbEntity
  8
補助線
  6
EXLTYPE3
 62
     3
100
AcDbLine
 10
1469.4
 20
1050.608315
 30
0.0
 11
1469.4
 21
1020.208315
 31
0.0
  0
LINE
  5
E9
330
1F
100
AcDbEntity
  8
補助線
  6
EXLTYPE3
 62
     3
100
AcDbLine
 10
1433.4
 20
881.991685
 30
0.0
 11
1433.4
 21
912.391685
 31
0.0
  0
LINE
  5
EA
330
1F
100
AcDbEntity
  8
補助線
  6
EXLTYPE3
 62
     3
100
AcDbLine
 10
1469.4
 20
881.991685
 30
0.0
 11
1469.4
 21
912.391685
 31
0.0
  0
LINE
  5
EB
330
1F
100
AcDbEntity
  8
補助線
  6
EXLTYPE3
 62
     3
100
AcDbLine
 10
1424.2
 20
896.3
 30
0.0
 11
1476.4
 21
896.3
 31
0.0
  0
CIRCLE
  5
EC
330
1F
100
AcDbEntity
  8
補助線
  6
Continuous
 62
     4
100
AcDbCircle
 10
1451.4
 20
1036.3
 30
0.0
 40
10.0
  0
LINE
  5
ED
330
1F
100
AcDbEntity
  8
補助線
  6
Continuous
 62
     4
100
AcDbLine
 10
1432.136111
 20
1042.675938
 30
0.0
 11
1449.455556
 21
1046.109135
 31
0.0
  0
LINE
  5
EE
330
1F
100
AcDbEntity
  8
補助線
  6
Continuous
 62
     4
100
AcDbLine
 10
1453.344444
 20
1046.109135
 30
0.0
 11
1470.663889
 21
1042.675938
 31
0.0
  0
LINE
  5
EF
330
1F
100
AcDbEntity
  8
補助線
  6
Continuous
 62
     4
100
AcDbLine
 10
1470.663889
 20
1029.924062
 30
0.0
 11
1453.344444
 21
1026.490865
 31
0.0
  0
LINE
  5
F0
330
1F
100
AcDbEntity
  8
補助線
  6
Continuous
 62
     4
100
AcDbLine
 10
1449.455556
 20
1026.490865
 30
0.0
 11
1432.136111
 21
1029.924062
 31
0.0
  0
ARC
  5
F1
330
1F
100
AcDbEntity
  8
補助線
  6
Continuous
 62
     4
100
AcDbCircle
 10
1433.4
 20
1036.3
 30
0.0
 40
6.5
100
AcDbArc
 50
101.212271
 51
258.787729
  0
ARC
  5
F2
330
1F
100
AcDbEntity
  8
補助線
  6
Continuous
 62
     4
100
AcDbCircle
 10
1469.4
 20
1036.3
 30
0.0
 40
6.5
100
AcDbArc
 50
281.212271
 51
78.787729
  0
LINE
  5
F3
330
1F
100
AcDbEntity
  8
補助線
  6
Continuous
 62
     4
100
AcDbLine
 10
1420.6
 20
1036.3
 30
0.0
 11
1481.6
 21
1036.3
 31
0.0
  0
LINE
  5
F4
330
1F
100
AcDbEntity
  8
補助線
  6
Continuous
 62
     4
100
AcDbLine
 10
1469.4
 20
1050.05
 30
0.0
 11
1469.4
 21
1022.85
 31
0.0
  0
LINE
  5
F5
330
1F
100
AcDbEntity
  8
補助線
  6
Continuous
 62
     4
100
AcDbLine
 10
1433.4
 20
1050.2
 30
0.0
 11
1433.4
 21
1022.6
 31
0.0
  0
LINE
  5
F6
330
1F
100
AcDbEntity
  8
補助線
  6
Continuous
 62
     4
100
AcDbLine
 10
1451.4
 20
1057.9
 30
0.0
 11
1451.4
 21
1015.3
 31
0.0
  0
CIRCLE
  5
F7
330
1F
100
AcDbEntity
  8
補助線
  6
Continuous
 62
     4
100
AcDbCircle
 10
1381.4
 20
966.3
 30
0.0
 40
10.0
  0
LINE
  5
F8
330
1F
100
AcDbEntity
  8
補助線
  6
Continuous
 62
     4
100
AcDbLine
 10
1362.136111
 20
972.675938
 30
0.0
 11
1379.455556
 21
976.109135
 31
0.0
  0
LINE
  5
F9
330
1F
100
AcDbEntity
  8
補助線
  6
Continuous
 62
     4
100
AcDbLine
 10
1383.344444
 20
976.109135
 30
0.0
 11
1400.663889
 21
972.675938
 31
0.0
  0
LINE
  5
FA
330
1F
100
AcDbEntity
  8
補助線
  6
Continuous
 62
     4
100
AcDbLine
 10
1400.663889
 20
959.924062
 30
0.0
 11
1383.344444
 21
956.490865
 31
0.0
  0
LINE
  5
FB
330
1F
100
AcDbEntity
  8
補助線
  6
Continuous
 62
     4
100
AcDbLine
 10
1379.455556
 20
956.490865
 30
0.0
 11
1362.136111
 21
959.924062
 31
0.0
  0
ARC
  5
FC
330
1F
100
AcDbEntity
  8
補助線
  6
Continuous
 62
     4
100
AcDbCircle
 10
1363.4
 20
966.3
 30
0.0
 40
6.5
100
AcDbArc
 50
101.212271
 51
258.787729
  0
ARC
  5
FD
330
1F
100
AcDbEntity
  8
補助線
  6
Continuous
 62
     4
100
AcDbCircle
 10
1399.4
 20
966.3
 30
0.0
 40
6.5
100
AcDbArc
 50
281.212271
 51
78.787729
  0
LINE
  5
FE
330
1F
100
AcDbEntity
  8
補助線
  6
Continuous
 62
     4
100
AcDbLine
 10
1350.6
 20
966.3
 30
0.0
 11
1411.6
 21
966.3
 31
0.0
  0
LINE
  5
FF
330
1F
100
AcDbEntity
  8
補助線
  6
Continuous
 62
     4
100
AcDbLine
 10
1399.4
 20
980.05
 30
0.0
 11
1399.4
 21
952.85
 31
0.0
  0
LINE
  5
100
330
1F
100
AcDbEntity
  8
補助線
  6
Continuous
 62
     4
100
AcDbLine
 10
1363.4
 20
980.2
 30
0.0
 11
1363.4
 21
952.6
 31
0.0
  0
LINE
  5
101
330
1F
100
AcDbEntity
  8
補助線
  6
Continuous
 62
     4
100
AcDbLine
 10
1381.4
 20
987.9
 30
0.0
 11
1381.4
 21
945.3
 31
0.0
  0
CIRCLE
  5
102
330
1F
100
AcDbEntity
  8
補助線
  6
Continuous
 62
     4
100
AcDbCircle
 10
1451.4
 20
896.3
 30
0.0
 40
10.0
  0
LINE
  5
103
330
1F
100
AcDbEntity
  8
補助線
  6
Continuous
 62
     4
100
AcDbLine
 10
1432.136111
 20
902.675938
 30
0.0
 11
1449.455556
 21
906.109135
 31
0.0
  0
LINE
  5
104
330
1F
100
AcDbEntity
  8
補助線
  6
Continuous
 62
     4
100
AcDbLine
 10
1453.344444
 20
906.109135
 30
0.0
 11
1470.663889
 21
902.675938
 31
0.0
  0
LINE
  5
105
330
1F
100
AcDbEntity
  8
補助線
  6
Continuous
 62
     4
100
AcDbLine
 10
1470.663889
 20
889.924062
 30
0.0
 11
1453.344444
 21
886.490865
 31
0.0
  0
LINE
  5
106
330
1F
100
AcDbEntity
  8
補助線
  6
Continuous
 62
     4
100
AcDbLine
 10
1449.455556
 20
886.490865
 30
0.0
 11
1432.136111
 21
889.924062
 31
0.0
  0
ARC
  5
107
330
1F
100
AcDbEntity
  8
補助線
  6
Continuous
 62
     4
100
AcDbCircle
 10
1433.4
 20
896.3
 30
0.0
 40
6.5
100
AcDbArc
 50
101.212271
 51
258.787729
  0
ARC
  5
108
330
1F
100
AcDbEntity
  8
補助線
  6
Continuous
 62
     4
100
AcDbCircle
 10
1469.4
 20
896.3
 30
0.0
 40
6.5
100
AcDbArc
 50
281.212271
 51
78.787729
  0
LINE
  5
109
330
1F
100
AcDbEntity
  8
補助線
  6
Continuous
 62
     4
100
AcDbLine
 10
1420.6
 20
896.3
 30
0.0
 11
1481.6
 21
896.3
 31
0.0
  0
LINE
  5
10A
330
1F
100
AcDbEntity
  8
補助線
  6
Continuous
 62
     4
100
AcDbLine
 10
1469.4
 20
910.05
 30
0.0
 11
1469.4
 21
882.85
 31
0.0
  0
LINE
  5
10B
330
1F
100
AcDbEntity
  8
補助線
  6
Continuous
 62
     4
100
AcDbLine
 10
1433.4
 20
910.2
 30
0.0
 11
1433.4
 21
882.6
 31
0.0
  0
LINE
  5
10C
330
1F
100
AcDbEntity
  8
補助線
  6
Continuous
 62
     4
100
AcDbLine
 10
1451.4
 20
917.9
 30
0.0
 11
1451.4
 21
875.3
 31
0.0
  0
LINE
  5
10D
330
1F
100
AcDbEntity
  8
補助線
  6
Continuous
 62
     7
100
AcDbLine
 10
1359.4
 20
1066.3
 30
0.0
 11
1479.4
 21
1066.3
 31
0.0
  0
LINE
  5
10E
330
1F
100
AcDbEntity
  8
補助線
  6
Continuous
 62
     7
100
AcDbLine
 10
1359.4
 20
1066.3
 30
0.0
 11
1359.4
 21
866.3
 31
0.0
  0
LINE
  5
10F
330
1F
100
AcDbEntity
  8
補助線
  6
Continuous
 62
     7
100
AcDbLine
 10
1479.4
 20
866.3
 30
0.0
 11
1479.4
 21
1066.3
 31
0.0
  0
LINE
  5
110
330
1F
100
AcDbEntity
  8
補助線
  6
Continuous
 62
     7
100
AcDbLine
 10
1359.4
 20
866.3
 30
0.0
 11
1479.4
 21
866.3
 31
0.0
  0
LINE
  5
111
330
1F
100
AcDbEntity
  8
補助線
  6
EXLTYPE3
 62
     3
100
AcDbLine
 10
1451.4
 20
856.3
 30
0.0
 11
1451.4
 21
1076.3
 31
0.0
  0
LINE
  5
112
330
1F
100
AcDbEntity
  8
補助線
  6
EXLTYPE3
 62
     3
100
AcDbLine
 10
1431.3
 20
896.3
 30
0.0
 11
1467.1
 21
896.3
 31
0.0
  0
LINE
  5
113
330
1F
100
AcDbEntity
  8
補助線
  6
EXLTYPE3
 62
     3
100
AcDbLine
 10
1430.3
 20
1036.3
 30
0.0
 11
1467.1
 21
1036.3
 31
0.0
  0
LINE
  5
114
330
1F
100
AcDbEntity
  8
補助線
  6
EXLTYPE3
 62
     3
100
AcDbLine
 10
1359.9
 20
966.3
 30
0.0
 11
1409.7
 21
966.3
 31
0.0
  0
LINE
  5
115
330
1F
100
AcDbEntity
  8
補助線
  6
EXLTYPE3
 62
     3
100
AcDbLine
 10
1381.4
 20
944.391685
 30
0.0
 11
1381.4
 21
993.191685
 31
0.0
  0
LINE
  5
116
330
1F
100
AcDbEntity
  8
補助線
  6
EXLTYPE3
 62
     3
100
AcDbLine
 10
1368.4
 20
856.3
 30
0.0
 11
1368.4
 21
1076.3
 31
0.0
  0
LINE
  5
117
330
1F
100
AcDbEntity
  8
補助線
  6
Continuous
 62
     4
100
AcDbLine
 10
1354.9
 20
996.3
 30
0.0
 11
1381.4
 21
996.3
 31
0.0
  0
LINE
  5
118
330
1F
100
AcDbEntity
  8
補助線
  6
Continuous
 62
     4
100
AcDbLine
 10
1354.9
 20
1043.8
 30
0.0
 11
1381.4
 21
1043.8
 31
0.0
  0
LINE
  5
119
330
1F
100
AcDbEntity
  8
補助線
  6
Continuous
 62
     4
100
AcDbLine
 10
1354.9
 20
1013.8
 30
0.0
 11
1381.4
 21
1013.8
 31
0.0
  0
LINE
  5
11A
330
1F
100
AcDbEntity
  8
補助線
  6
Continuous
 62
     4
100
AcDbLine
 10
1354.9
 20
918.8
 30
0.0
 11
1381.4
 21
918.8
 31
0.0
  0
LINE
  5
11B
330
1F
100
AcDbEntity
  8
補助線
  6
Continuous
 62
     4
100
AcDbLine
 10
1354.9
 20
888.8
 30
0.0
 11
1381.4
 21
888.8
 31
0.0
  0
LINE
  5
11C
330
1F
100
AcDbEntity
  8
補助線
  6
Continuous
 62
     4
100
AcDbLine
 10
1354.9
 20
1061.3
 30
0.0
 11
1381.4
 21
1061.3
 31
0.0
  0
LINE
  5
11D
330
1F
100
AcDbEntity
  8
補助線
  6
Continuous
 62
     4
100
AcDbLine
 10
1354.9
 20
936.3
 30
0.0
 11
1381.4
 21
936.3
 31
0.0
  0
LINE
  5
11E
330
1F
100
AcDbEntity
  8
補助線
  6
Continuous
 62
     4
100
AcDbLine
 10
1354.9
 20
871.3
 30
0.0
 11
1382.1
 21
871.3
 31
0.0
  0
LINE
  5
11F
330
1F
100
AcDbEntity
  8
補助線
  6
Continuous
 62
     4
100
AcDbLine
 10
762.7
 20
846.3
 30
0.0
 11
762.7
 21
1086.3
 31
0.0
  0
LINE
  5
120
330
1F
100
AcDbEntity
  8
補助線
  6
Continuous
 62
     4
100
AcDbLine
 10
733.7
 20
1043.8
 30
0.0
 11
933.7
 21
1043.8
 31
0.0
  0
LINE
  5
121
330
1F
100
AcDbEntity
  8
補助線
  6
Continuous
 62
     4
100
AcDbLine
 10
733.7
 20
1013.8
 30
0.0
 11
933.7
 21
1013.8
 31
0.0
  0
LINE
  5
122
330
1F
100
AcDbEntity
  8
補助線
  6
Continuous
 62
     4
100
AcDbLine
 10
1368.4
 20
846.3
 30
0.0
 11
1368.4
 21
1086.3
 31
0.0
  0
LINE
  5
123
330
1F
100
AcDbEntity
  8
補助線
  6
Continuous
 62
     4
100
AcDbLine
 10
1339.4
 20
1043.8
 30
0.0
 11
1539.4
 21
1043.8
 31
0.0
  0
LINE
  5
124
330
1F
100
AcDbEntity
  8
補助線
  6
Continuous
 62
     4
100
AcDbLine
 10
1339.4
 20
1013.8
 30
0.0
 11
1539.4
 21
1013.8
 31
0.0
  0
LWPOLYLINE
  5
125
330
1F
100
AcDbEntity
  8
補助線
  6
Continuous
 62
     4
100
AcDbPolyline
 90
        5
 70
   128
 43
0.0
 10
1358.4
 20
991.3
 10
1378.4
 20
991.3
 10
1378.4
 20
1066.3
 10
1358.4
 20
1066.3
 10
1358.4
 20
991.3
  0
LINE
  5
12C
330
1F
100
AcDbEntity
  8
補助線
  6
Continuous
 62
     4
100
AcDbLine
 10
1378.4
 20
1061.3
 30
0.0
 11
1358.4
 21
1061.3
 31
0.0
  0
LINE
  5
12D
330
1F
100
AcDbEntity
  8
補助線
  6
Continuous
 62
     4
100
AcDbLine
 10
1358.4
 20
996.3
 30
0.0
 11
1378.4
 21
996.3
 31
0.0
  0
LINE
  5
12E
330
1F
100
AcDbEntity
  8
補助線
  6
Continuous
 62
     4
100
AcDbLine
 10
1368.4
 20
1066.3
 30
0.0
 11
1368.4
 21
991.3
 31
0.0
  0
LINE
  5
12F
330
1F
100
AcDbEntity
  8
補助線
  6
Continuous
 62
     4
100
AcDbLine
 10
1357.4
 20
1066.3
 30
0.0
 11
1357.4
 21
991.3
 31
0.0
  0
LINE
  5
130
330
1F
100
AcDbEntity
  8
補助線
  6
Continuous
 62
     4
100
AcDbLine
 10
1357.4
 20
1066.3
 30
0.0
 11
1358.4
 21
1066.3
 31
0.0
  0
LINE
  5
131
330
1F
100
AcDbEntity
  8
補助線
  6
Continuous
 62
     4
100
AcDbLine
 10
1357.4
 20
991.3
 30
0.0
 11
1358.4
 21
991.3
 31
0.0
  0
LWPOLYLINE
  5
132
330
1F
100
AcDbEntity
  8
補助線
  6
Continuous
 62
     4
100
AcDbPolyline
 90
        5
 70
   128
 43
0.0
 10
1358.4
 20
866.3
 10
1378.4
 20
866.3
 10
1378.4
 20
941.3
 10
1358.4
 20
941.3
 10
1358.4
 20
866.3
  0
LINE
  5
139
330
1F
100
AcDbEntity
  8
補助線
  6
Continuous
 62
     4
100
AcDbLine
 10
1378.4
 20
936.3
 30
0.0
 11
1358.4
 21
936.3
 31
0.0
  0
LINE
  5
13A
330
1F
100
AcDbEntity
  8
補助線
  6
Continuous
 62
     4
100
AcDbLine
 10
1358.4
 20
871.3
 30
0.0
 11
1378.4
 21
871.3
 31
0.0
  0
LINE
  5
13B
330
1F
100
AcDbEntity
  8
補助線
  6
Continuous
 62
     4
100
AcDbLine
 10
1368.4
 20
941.3
 30
0.0
 11
1368.4
 21
866.3
 31
0.0
  0
LINE
  5
13C
330
1F
100
AcDbEntity
  8
補助線
  6
Continuous
 62
     4
100
AcDbLine
 10
1357.4
 20
941.3
 30
0.0
 11
1357.4
 21
866.3
 31
0.0
  0
LINE
  5
13D
330
1F
100
AcDbEntity
  8
補助線
  6
Continuous
 62
     4
100
AcDbLine
 10
1357.4
 20
941.3
 30
0.0
 11
1358.4
 21
941.3
 31
0.0
  0
LINE
  5
13E
330
1F
100
AcDbEntity
  8
補助線
  6
Continuous
 62
     4
100
AcDbLine
 10
1357.4
 20
866.3
 30
0.0
 11
1358.4
 21
866.3
 31
0.0
  0
LINE
  5
13F
330
1F
100
AcDbEntity
  8
補助線
  6
Continuous
 62
     4
100
AcDbLine
 10
773.7
 20
1001.3
 30
0.0
 11
773.7
 21
1056.3
 31
0.0
  0
LINE
  5
140
330
1F
100
AcDbEntity
  8
補助線
  6
Continuous
 62
     4
100
AcDbLine
 10
773.7
 20
1056.3
 30
0.0
 11
759.2
 21
1056.3
 31
0.0
  0
LINE
  5
141
330
1F
100
AcDbEntity
  8
補助線
  6
Continuous
 62
     4
100
AcDbLine
 10
759.2
 20
1001.3
 30
0.0
 11
773.7
 21
1001.3
 31
0.0
  0
CIRCLE
  5
142
330
1F
100
AcDbEntity
  8
作図線（太線）
  6
Continuous
 62
     7
100
AcDbCircle
 10
616.9
 20
810.3
 30
0.0
 40
9.0
  0
CIRCLE
  5
143
330
1F
100
AcDbEntity
  8
作図線（太線）
  6
Continuous
 62
     7
100
AcDbCircle
 10
616.9
 20
810.3
 30
0.0
 40
4.0
  0
CIRCLE
  5
144
330
1F
100
AcDbEntity
  8
作図線（太線）
  6
Continuous
 62
     7
100
AcDbCircle
 10
596.9
 20
810.3
 30
0.0
 40
4.5
  0
CIRCLE
  5
145
330
1F
100
AcDbEntity
  8
作図線（太線）
  6
Continuous
 62
     7
100
AcDbCircle
 10
636.9
 20
810.3
 30
0.0
 40
4.5
  0
CIRCLE
  5
146
330
1F
100
AcDbEntity
  8
作図線（太線）
  6
Continuous
 62
     7
100
AcDbCircle
 10
596.9
 20
810.3
 30
0.0
 40
7.0
  0
CIRCLE
  5
147
330
1F
100
AcDbEntity
  8
作図線（太線）
  6
Continuous
 62
     7
100
AcDbCircle
 10
636.9
 20
810.3
 30
0.0
 40
7.0
  0
CIRCLE
  5
148
330
1F
100
AcDbEntity
  8
作図線（太線）
  6
Continuous
 62
     3
100
AcDbCircle
 10
616.9
 20
810.3
 30
0.0
 40
5.0
  0
LINE
  5
149
330
1F
100
AcDbEntity
  8
作図線（太線）
  6
EXLTYPE3
 62
     3
100
AcDbLine
 10
636.9
 20
814.3
 30
0.0
 11
636.9
 21
795.3
 31
0.0
  0
LINE
  5
14A
330
1F
100
AcDbEntity
  8
作図線（太線）
  6
EXLTYPE3
 62
     3
100
AcDbLine
 10
596.9
 20
814.3
 30
0.0
 11
596.9
 21
795.3
 31
0.0
  0
ARC
  5
14B
330
1F
100
AcDbEntity
  8
作図線（太線）
  6
Continuous
 62
     7
100
AcDbCircle
 10
616.9
 20
810.3
 30
0.0
 40
30.0
100
AcDbArc
 50
330.0
 51
210.0
  0
LINE
  5
14C
330
1F
100
AcDbEntity
  8
作図線（太線）
  6
Continuous
 62
     7
100
AcDbLine
 10
571.9
 20
1017.3
 30
0.0
 11
571.9
 21
795.3
 31
0.0
  0
LINE
  5
14D
330
1F
100
AcDbEntity
  8
作図線（太線）
  6
Continuous
 62
     7
100
AcDbLine
 10
571.9
 20
801.3
 30
0.0
 11
555.9
 21
801.3
 31
0.0
  0
LINE
  5
14E
330
1F
100
AcDbEntity
  8
作図線（太線）
  6
Continuous
 62
     7
100
AcDbLine
 10
667.4
 20
1017.3
 30
0.0
 11
667.4
 21
801.3
 31
0.0
  0
LINE
  5
14F
330
1F
100
AcDbEntity
  8
作図線（太線）
  6
Continuous
 62
     7
100
AcDbLine
 10
661.9
 20
1017.3
 30
0.0
 11
661.9
 21
795.3
 31
0.0
  0
LINE
  5
150
330
1F
100
AcDbEntity
  8
作図線（太線）
  6
Continuous
 62
     7
100
AcDbLine
 10
677.9
 20
801.3
 30
0.0
 11
661.9
 21
801.3
 31
0.0
  0
LINE
  5
151
330
1F
100
AcDbEntity
  8
作図線（太線）
  6
Continuous
 62
     7
100
AcDbLine
 10
661.9
 20
795.3
 30
0.0
 11
571.9
 21
795.3
 31
0.0
  0
LINE
  5
152
330
1F
100
AcDbEntity
  8
作図線（太線）
  6
EXLTYPE3
 62
     3
100
AcDbLine
 10
661.9
 20
810.3
 30
0.0
 11
571.9
 21
810.3
 31
0.0
  0
LINE
  5
153
330
1F
100
AcDbEntity
  8
作図線（太線）
  6
Continuous
 62
     7
100
AcDbLine
 10
677.9
 20
1017.3
 30
0.0
 11
677.9
 21
984.3
 31
0.0
  0
LINE
  5
154
330
1F
100
AcDbEntity
  8
作図線（太線）
  6
Continuous
 62
     7
100
AcDbLine
 10
677.9
 20
802.3
 30
0.0
 11
677.9
 21
801.3
 31
0.0
  0
LINE
  5
155
330
1F
100
AcDbEntity
  8
作図線（太線）
  6
Continuous
 62
     7
100
AcDbLine
 10
555.9
 20
802.3
 30
0.0
 11
555.9
 21
801.3
 31
0.0
  0
LINE
  5
156
330
1F
100
AcDbEntity
  8
作図線（太線）
  6
Continuous
 62
     7
100
AcDbLine
 10
555.9
 20
802.3
 30
0.0
 11
555.9
 21
801.3
 31
0.0
  0
LINE
  5
157
330
1F
100
AcDbEntity
  8
作図線（太線）
  6
Continuous
 62
     7
100
AcDbLine
 10
566.4
 20
1017.3
 30
0.0
 11
566.4
 21
801.3
 31
0.0
  0
LINE
  5
158
330
1F
100
AcDbEntity
  8
作図線（太線）
  6
Continuous
 62
     7
100
AcDbLine
 10
677.9
 20
1017.3
 30
0.0
 11
571.9
 21
1017.3
 31
0.0
  0
LINE
  5
159
330
1F
100
AcDbEntity
  8
作図線（太線）
  6
Continuous
 62
     7
100
AcDbLine
 10
570.4
 20
1017.3
 30
0.0
 11
555.9
 21
1017.3
 31
0.0
  0
LINE
  5
15A
330
1F
100
AcDbEntity
  8
作図線（太線）
  6
EXLTYPE3
 62
     3
100
AcDbLine
 10
724.526276
 20
866.55
 30
0.0
 11
724.4
 21
866.55
 31
0.0
  0
LINE
  5
15B
330
1F
100
AcDbEntity
  8
作図線（太線）
  6
Continuous
 62
     7
100
AcDbLine
 10
555.9
 20
1017.3
 30
0.0
 11
555.9
 21
1011.3
 31
0.0
  0
LINE
  5
15C
330
1F
100
AcDbEntity
  8
作図線（太線）
  6
Continuous
 62
     7
100
AcDbLine
 10
555.9
 20
987.5
 30
0.0
 11
555.9
 21
984.3
 31
0.0
  0
LINE
  5
15D
330
1F
100
AcDbEntity
  8
作図線（太線）
  6
Continuous
 62
     7
100
AcDbLine
 10
506.9
 20
1086.3
 30
0.0
 11
564.9
 21
1086.3
 31
0.0
  0
LINE
  5
15E
330
1F
100
AcDbEntity
  8
作図線（太線）
  6
Continuous
 62
     7
100
AcDbLine
 10
726.9
 20
1086.3
 30
0.0
 11
726.9
 21
1106.3
 31
0.0
  0
LINE
  5
15F
330
1F
100
AcDbEntity
  8
作図線（太線）
  6
Continuous
 62
     7
100
AcDbLine
 10
506.9
 20
1086.3
 30
0.0
 11
506.9
 21
1106.3
 31
0.0
  0
LINE
  5
160
330
1F
100
AcDbEntity
  8
作図線（太線）
  6
Continuous
 62
     7
100
AcDbLine
 10
726.9
 20
1106.3
 30
0.0
 11
726.9
 21
1257.3
 31
0.0
  0
ARC
  5
161
330
1F
100
AcDbEntity
  8
作図線（太線）
  6
Continuous
 62
     7
100
AcDbCircle
 10
713.9
 20
1257.3
 30
0.0
 40
13.0
100
AcDbArc
 50
0.0
 51
90.0
  0
LINE
  5
162
330
1F
100
AcDbEntity
  8
作図線（太線）
  6
Continuous
 62
     7
100
AcDbLine
 10
713.9
 20
1270.3
 30
0.0
 11
519.9
 21
1270.3
 31
0.0
  0
LINE
  5
163
330
1F
100
AcDbEntity
  8
作図線（太線）
  6
Continuous
 62
     7
100
AcDbLine
 10
506.9
 20
1106.3
 30
0.0
 11
506.9
 21
1257.3
 31
0.0
  0
ARC
  5
164
330
1F
100
AcDbEntity
  8
作図線（太線）
  6
Continuous
 62
     7
100
AcDbCircle
 10
519.9
 20
1257.3
 30
0.0
 40
13.0
100
AcDbArc
 50
90.0
 51
180.0
  0
LINE
  5
165
330
1F
100
AcDbEntity
  8
作図線（太線）
  6
Continuous
 62
     7
100
AcDbLine
 10
662.9
 20
1067.3
 30
0.0
 11
664.4
 21
1067.3
 31
0.0
  0
LINE
  5
166
330
1F
100
AcDbEntity
  8
作図線（太線）
  6
Continuous
 62
     7
100
AcDbLine
 10
664.4
 20
1067.3
 30
0.0
 11
669.4
 21
1067.3
 31
0.0
  0
LINE
  5
167
330
1F
100
AcDbEntity
  8
作図線（太線）
  6
Continuous
 62
     7
100
AcDbLine
 10
568.9
 20
1052.3
 30
0.0
 11
568.9
 21
1067.3
 31
0.0
  0
LINE
  5
168
330
1F
100
AcDbEntity
  8
作図線（太線）
  6
Continuous
 62
     7
100
AcDbLine
 10
664.9
 20
1052.3
 30
0.0
 11
664.9
 21
1067.3
 31
0.0
  0
LINE
  5
169
330
1F
100
AcDbEntity
  8
作図線（太線）
  6
Continuous
 62
     7
100
AcDbLine
 10
568.9
 20
1052.3
 30
0.0
 11
664.9
 21
1052.3
 31
0.0
  0
LINE
  5
16A
330
1F
100
AcDbEntity
  8
作図線（太線）
  6
Continuous
 62
     7
100
AcDbLine
 10
569.4
 20
1067.3
 30
0.0
 11
564.4
 21
1067.3
 31
0.0
  0
LINE
  5
16B
330
1F
100
AcDbEntity
  8
作図線（太線）
  6
Continuous
 62
     7
100
AcDbLine
 10
669.4
 20
1067.3
 30
0.0
 11
675.9
 21
1067.3
 31
0.0
  0
LINE
  5
16C
330
1F
100
AcDbEntity
  8
作図線（太線）
  6
Continuous
 62
     7
100
AcDbLine
 10
662.4
 20
1044.3
 30
0.0
 11
662.4
 21
1052.3
 31
0.0
  0
LINE
  5
16D
330
1F
100
AcDbEntity
  8
作図線（太線）
  6
Continuous
 62
     7
100
AcDbLine
 10
649.4
 20
1044.3
 30
0.0
 11
649.4
 21
1052.3
 31
0.0
  0
LINE
  5
16E
330
1F
100
AcDbEntity
  8
作図線（太線）
  6
Continuous
 62
     7
100
AcDbLine
 10
649.4
 20
1044.3
 30
0.0
 11
662.4
 21
1044.3
 31
0.0
  0
LINE
  5
16F
330
1F
100
AcDbEntity
  8
作図線（太線）
  6
EXLTYPE3
 62
     3
100
AcDbLine
 10
577.9
 20
1041.8
 30
0.0
 11
577.9
 21
1095.1
 31
0.0
  0
LINE
  5
170
330
1F
100
AcDbEntity
  8
作図線（太線）
  6
EXLTYPE3
 62
     3
100
AcDbLine
 10
655.9
 20
1041.8
 30
0.0
 11
655.9
 21
1095.1
 31
0.0
  0
LINE
  5
171
330
1F
100
AcDbEntity
  8
作図線（太線）
  6
Continuous
 62
     7
100
AcDbLine
 10
651.9
 20
1067.3
 30
0.0
 11
662.9
 21
1067.3
 31
0.0
  0
LINE
  5
172
330
1F
100
AcDbEntity
  8
作図線（太線）
  6
Continuous
 62
     7
100
AcDbLine
 10
726.9
 20
1086.3
 30
0.0
 11
564.9
 21
1086.3
 31
0.0
  0
LINE
  5
173
330
1F
100
AcDbEntity
  8
作図線（太線）
  6
Continuous
 62
     7
100
AcDbLine
 10
557.9
 20
1067.3
 30
0.0
 11
652.3
 21
1067.3
 31
0.0
  0
LINE
  5
174
330
1F
100
AcDbEntity
  8
作図線（太線）
  6
Continuous
 62
     7
100
AcDbLine
 10
675.9
 20
1086.3
 30
0.0
 11
675.9
 21
1067.3
 31
0.0
  0
LINE
  5
175
330
1F
100
AcDbEntity
  8
作図線（太線）
  6
Continuous
 62
     7
100
AcDbLine
 10
557.9
 20
1086.3
 30
0.0
 11
557.9
 21
1067.3
 31
0.0
  0
LINE
  5
176
330
1F
100
AcDbEntity
  8
作図線（太線）
  6
Continuous
 62
     7
100
AcDbLine
 10
571.4
 20
1044.3
 30
0.0
 11
571.4
 21
1052.3
 31
0.0
  0
LINE
  5
177
330
1F
100
AcDbEntity
  8
作図線（太線）
  6
Continuous
 62
     7
100
AcDbLine
 10
584.4
 20
1044.3
 30
0.0
 11
584.4
 21
1052.3
 31
0.0
  0
LINE
  5
178
330
1F
100
AcDbEntity
  8
作図線（太線）
  6
Continuous
 62
     7
100
AcDbLine
 10
584.4
 20
1044.3
 30
0.0
 11
571.4
 21
1044.3
 31
0.0
  0
LINE
  5
179
330
1F
100
AcDbEntity
  8
作図線（太線）
  6
Continuous
 62
     7
100
AcDbLine
 10
667.9
 20
802.3
 30
0.0
 11
726.9
 21
802.3
 31
0.0
  0
LINE
  5
17A
330
1F
100
AcDbEntity
  8
作図線（太線）
  6
Continuous
 62
     7
100
AcDbLine
 10
667.9
 20
984.3
 30
0.0
 11
667.9
 21
801.3
 31
0.0
  0
LINE
  5
17B
330
1F
100
AcDbEntity
  8
作図線（太線）
  6
Continuous
 62
     7
100
AcDbLine
 10
565.9
 20
984.3
 30
0.0
 11
565.9
 21
801.3
 31
0.0
  0
LINE
  5
17C
330
1F
100
AcDbEntity
  8
作図線（太線）
  6
Continuous
 62
     7
100
AcDbLine
 10
696.9
 20
984.3
 30
0.0
 11
696.9
 21
802.3
 31
0.0
  0
LINE
  5
17D
330
1F
100
AcDbEntity
  8
作図線（太線）
  6
Continuous
 62
     7
100
AcDbLine
 10
565.9
 20
802.3
 30
0.0
 11
506.9
 21
802.3
 31
0.0
  0
LINE
  5
17E
330
1F
100
AcDbEntity
  8
作図線（太線）
  6
Continuous
 62
     7
100
AcDbLine
 10
649.4
 20
1044.3
 30
0.0
 11
649.4
 21
1052.3
 31
0.0
  0
LINE
  5
17F
330
1F
100
AcDbEntity
  8
作図線（太線）
  6
Continuous
 62
     7
100
AcDbLine
 10
604.4
 20
1037.3
 30
0.0
 11
604.4
 21
1052.3
 31
0.0
  0
LINE
  5
180
330
1F
100
AcDbEntity
  8
作図線（太線）
  6
Continuous
 62
     3
100
AcDbLine
 10
607.4
 20
1052.3
 30
0.0
 11
607.4
 21
1037.3
 31
0.0
  0
LINE
  5
181
330
1F
100
AcDbEntity
  8
作図線（太線）
  6
Continuous
 62
     3
100
AcDbLine
 10
626.4
 20
1052.3
 30
0.0
 11
626.4
 21
1037.3
 31
0.0
  0
LINE
  5
182
330
1F
100
AcDbEntity
  8
作図線（太線）
  6
Continuous
 62
     7
100
AcDbLine
 10
629.4
 20
1037.3
 30
0.0
 11
629.4
 21
1052.3
 31
0.0
  0
LINE
  5
183
330
1F
100
AcDbEntity
  8
作図線（太線）
  6
Continuous
 62
     7
100
AcDbLine
 10
571.9
 20
1017.3
 30
0.0
 11
571.9
 21
1032.3
 31
0.0
  0
LINE
  5
184
330
1F
100
AcDbEntity
  8
作図線（太線）
  6
Continuous
 62
     7
100
AcDbLine
 10
661.9
 20
1017.3
 30
0.0
 11
661.9
 21
1032.3
 31
0.0
  0
LINE
  5
185
330
1F
100
AcDbEntity
  8
作図線（太線）
  6
Continuous
 62
     7
100
AcDbLine
 10
601.4
 20
1037.3
 30
0.0
 11
601.4
 21
1032.3
 31
0.0
  0
LINE
  5
186
330
1F
100
AcDbEntity
  8
作図線（太線）
  6
Continuous
 62
     7
100
AcDbLine
 10
632.4
 20
1037.3
 30
0.0
 11
632.4
 21
1032.3
 31
0.0
  0
LINE
  5
187
330
1F
100
AcDbEntity
  8
作図線（太線）
  6
Continuous
 62
     7
100
AcDbLine
 10
571.9
 20
1032.3
 30
0.0
 11
601.4
 21
1032.3
 31
0.0
  0
LINE
  5
188
330
1F
100
AcDbEntity
  8
作図線（太線）
  6
Continuous
 62
     7
100
AcDbLine
 10
661.9
 20
1032.3
 30
0.0
 11
632.4
 21
1032.3
 31
0.0
  0
LINE
  5
189
330
1F
100
AcDbEntity
  8
作図線（太線）
  6
Continuous
 62
     7
100
AcDbLine
 10
601.4
 20
1037.3
 30
0.0
 11
632.4
 21
1037.3
 31
0.0
  0
LINE
  5
18A
330
1F
100
AcDbEntity
  8
作図線（太線）
  6
Continuous
 62
     7
100
AcDbLine
 10
701.9
 20
984.3
 30
0.0
 11
701.9
 21
1086.3
 31
0.0
  0
LINE
  5
18B
330
1F
100
AcDbEntity
  8
作図線（太線）
  6
Continuous
 62
     7
100
AcDbLine
 10
667.9
 20
984.3
 30
0.0
 11
701.9
 21
984.3
 31
0.0
  0
LINE
  5
18C
330
1F
100
AcDbEntity
  8
作図線（太線）
  6
Continuous
 62
     7
100
AcDbLine
 10
570.4
 20
986.8
 30
0.0
 11
571.9
 21
986.8
 31
0.0
  0
LINE
  5
18D
330
1F
100
AcDbEntity
  8
作図線（太線）
  6
Continuous
 62
     7
100
AcDbLine
 10
566.4
 20
986.8
 30
0.0
 11
566.4
 21
1015.8
 31
0.0
  0
ARC
  5
18E
330
1F
100
AcDbEntity
  8
作図線（太線）
  6
Continuous
 62
     7
100
AcDbCircle
 10
573.568
 20
1008.8
 30
0.0
 40
5.668
100
AcDbArc
 50
123.981647
 51
236.018353
  0
ARC
  5
18F
330
1F
100
AcDbEntity
  8
作図線（太線）
  6
Continuous
 62
     7
100
AcDbCircle
 10
573.568
 20
993.8
 30
0.0
 40
5.668
100
AcDbArc
 50
123.981647
 51
236.018353
  0
LINE
  5
190
330
1F
100
AcDbEntity
  8
作図線（太線）
  6
Continuous
 62
     7
100
AcDbLine
 10
511.9
 20
1032.3
 30
0.0
 11
511.9
 21
1033.5
 31
0.0
  0
LINE
  5
191
330
1F
100
AcDbEntity
  8
作図線（太線）
  6
Continuous
 62
     7
100
AcDbLine
 10
531.9
 20
1033.5
 30
0.0
 11
531.9
 21
1086.3
 31
0.0
  0
LINE
  5
192
330
1F
100
AcDbEntity
  8
作図線（太線）
  6
Continuous
 62
     7
100
AcDbLine
 10
559.5
 20
1033.5
 30
0.0
 11
559.5
 21
1039.9
 31
0.0
  0
LINE
  5
193
330
1F
100
AcDbEntity
  8
作図線（太線）
  6
Continuous
 62
     7
100
AcDbLine
 10
544.0
 20
1033.5
 30
0.0
 11
544.0
 21
1049.2
 31
0.0
  0
LINE
  5
194
330
1F
100
AcDbEntity
  8
作図線（太線）
  6
Continuous
 62
     7
100
AcDbLine
 10
551.2
 20
1039.9
 30
0.0
 11
559.5
 21
1039.9
 31
0.0
  0
LINE
  5
195
330
1F
100
AcDbEntity
  8
作図線（太線）
  6
Continuous
 62
     7
100
AcDbLine
 10
544.0
 20
1040.5
 30
0.0
 11
551.2
 21
1040.5
 31
0.0
  0
LINE
  5
196
330
1F
100
AcDbEntity
  8
作図線（太線）
  6
Continuous
 62
     7
100
AcDbLine
 10
550.5
 20
1040.5
 30
0.0
 11
550.5
 21
1049.2
 31
0.0
  0
LINE
  5
197
330
1F
100
AcDbEntity
  8
作図線（太線）
  6
Continuous
 62
     7
100
AcDbLine
 10
551.2
 20
1033.5
 30
0.0
 11
551.2
 21
1040.5
 31
0.0
  0
LINE
  5
198
330
1F
100
AcDbEntity
  8
作図線（太線）
  6
Continuous
 62
     7
100
AcDbLine
 10
544.0
 20
1049.2
 30
0.0
 11
550.5
 21
1049.2
 31
0.0
  0
LINE
  5
199
330
1F
100
AcDbEntity
  8
作図線（太線）
  6
Continuous
 62
     7
100
AcDbLine
 10
551.6
 20
1032.3
 30
0.0
 11
551.6
 21
1033.5
 31
0.0
  0
LINE
  5
19A
330
1F
100
AcDbEntity
  8
作図線（太線）
  6
Continuous
 62
     7
100
AcDbLine
 10
570.4
 20
986.8
 30
0.0
 11
570.4
 21
1037.5
 31
0.0
  0
LINE
  5
19B
330
1F
100
AcDbEntity
  8
作図線（太線）
  6
Continuous
 62
     7
100
AcDbLine
 10
571.9
 20
1032.3
 30
0.0
 11
571.9
 21
1037.5
 31
0.0
  0
LINE
  5
19C
330
1F
100
AcDbEntity
  8
作図線（太線）
  6
Continuous
 62
     7
100
AcDbLine
 10
559.5
 20
1037.5
 30
0.0
 11
571.9
 21
1037.5
 31
0.0
  0
LINE
  5
19D
330
1F
100
AcDbEntity
  8
作図線（太線）
  6
Continuous
 62
     7
100
AcDbLine
 10
553.9
 20
1022.5
 30
0.0
 11
570.4
 21
1022.5
 31
0.0
  0
LINE
  5
19E
330
1F
100
AcDbEntity
  8
作図線（太線）
  6
Continuous
 62
     7
100
AcDbLine
 10
563.4
 20
1017.3
 30
0.0
 11
570.4
 21
1017.3
 31
0.0
  0
LINE
  5
19F
330
1F
100
AcDbEntity
  8
作図線（太線）
  6
Continuous
 62
     7
100
AcDbLine
 10
570.4
 20
1017.3
 30
0.0
 11
563.4
 21
1017.3
 31
0.0
  0
LINE
  5
1A0
330
1F
100
AcDbEntity
  8
作図線（太線）
  6
Continuous
 62
     7
100
AcDbLine
 10
511.9
 20
1078.5
 30
0.0
 11
529.9
 21
1078.5
 31
0.0
  0
LINE
  5
1A1
330
1F
100
AcDbEntity
  8
作図線（太線）
  6
Continuous
 62
     7
100
AcDbLine
 10
511.9
 20
1033.5
 30
0.0
 11
511.9
 21
1078.5
 31
0.0
  0
LINE
  5
1A2
330
1F
100
AcDbEntity
  8
作図線（太線）
  6
Continuous
 62
     7
100
AcDbLine
 10
529.9
 20
1033.5
 30
0.0
 11
529.9
 21
1078.5
 31
0.0
  0
LINE
  5
1A3
330
1F
100
AcDbEntity
  8
作図線（太線）
  6
Continuous
 62
     7
100
AcDbLine
 10
518.4
 20
1068.5
 30
0.0
 11
518.4
 21
1064.5
 31
0.0
  0
LINE
  5
1A4
330
1F
100
AcDbEntity
  8
作図線（太線）
  6
Continuous
 62
     7
100
AcDbLine
 10
523.4
 20
1068.5
 30
0.0
 11
523.4
 21
1064.5
 31
0.0
  0
ARC
  5
1A5
330
1F
100
AcDbEntity
  8
作図線（太線）
  6
Continuous
 62
     7
100
AcDbCircle
 10
520.9
 20
1068.5
 30
0.0
 40
2.5
100
AcDbArc
 50
0.0
 51
180.0
  0
ARC
  5
1A6
330
1F
100
AcDbEntity
  8
作図線（太線）
  6
Continuous
 62
     7
100
AcDbCircle
 10
520.9
 20
1064.5
 30
0.0
 40
2.5
100
AcDbArc
 50
180.0
 51
0.0
  0
LINE
  5
1A7
330
1F
100
AcDbEntity
  8
作図線（太線）
  6
Continuous
 62
     7
100
AcDbLine
 10
518.4
 20
1048.5
 30
0.0
 11
518.4
 21
1044.5
 31
0.0
  0
LINE
  5
1A8
330
1F
100
AcDbEntity
  8
作図線（太線）
  6
Continuous
 62
     7
100
AcDbLine
 10
523.4
 20
1048.5
 30
0.0
 11
523.4
 21
1044.5
 31
0.0
  0
ARC
  5
1A9
330
1F
100
AcDbEntity
  8
作図線（太線）
  6
Continuous
 62
     7
100
AcDbCircle
 10
520.9
 20
1048.5
 30
0.0
 40
2.5
100
AcDbArc
 50
0.0
 51
180.0
  0
ARC
  5
1AA
330
1F
100
AcDbEntity
  8
作図線（太線）
  6
Continuous
 62
     7
100
AcDbCircle
 10
520.9
 20
1044.5
 30
0.0
 40
2.5
100
AcDbArc
 50
180.0
 51
0.0
  0
LINE
  5
1AB
330
1F
100
AcDbEntity
  8
作図線（太線）
  6
Continuous
 62
     7
100
AcDbLine
 10
551.6
 20
1032.3
 30
0.0
 11
551.6
 21
1033.5
 31
0.0
  0
LINE
  5
1AC
330
1F
100
AcDbEntity
  8
作図線（太線）
  6
Continuous
 62
     7
100
AcDbLine
 10
559.5
 20
1032.3
 30
0.0
 11
559.5
 21
1025.9
 31
0.0
  0
LINE
  5
1AD
330
1F
100
AcDbEntity
  8
作図線（太線）
  6
Continuous
 62
     7
100
AcDbLine
 10
544.0
 20
1032.3
 30
0.0
 11
544.0
 21
1016.6
 31
0.0
  0
LINE
  5
1AE
330
1F
100
AcDbEntity
  8
作図線（太線）
  6
Continuous
 62
     7
100
AcDbLine
 10
551.2
 20
1025.9
 30
0.0
 11
559.5
 21
1025.9
 31
0.0
  0
LINE
  5
1AF
330
1F
100
AcDbEntity
  8
作図線（太線）
  6
Continuous
 62
     7
100
AcDbLine
 10
544.0
 20
1025.3
 30
0.0
 11
551.2
 21
1025.3
 31
0.0
  0
LINE
  5
1B0
330
1F
100
AcDbEntity
  8
作図線（太線）
  6
Continuous
 62
     7
100
AcDbLine
 10
550.5
 20
1025.3
 30
0.0
 11
550.5
 21
1016.6
 31
0.0
  0
LINE
  5
1B1
330
1F
100
AcDbEntity
  8
作図線（太線）
  6
Continuous
 62
     7
100
AcDbLine
 10
551.2
 20
1032.3
 30
0.0
 11
551.2
 21
1025.3
 31
0.0
  0
LINE
  5
1B2
330
1F
100
AcDbEntity
  8
作図線（太線）
  6
Continuous
 62
     7
100
AcDbLine
 10
544.0
 20
1016.6
 30
0.0
 11
550.5
 21
1016.6
 31
0.0
  0
LINE
  5
1B3
330
1F
100
AcDbEntity
  8
作図線（太線）
  6
Continuous
 62
     7
100
AcDbLine
 10
551.6
 20
1032.3
 30
0.0
 11
559.5
 21
1032.3
 31
0.0
  0
LINE
  5
1B4
330
1F
100
AcDbEntity
  8
作図線（太線）
  6
Continuous
 62
     7
100
AcDbLine
 10
561.9
 20
1011.3
 30
0.0
 11
506.9
 21
1011.3
 31
0.0
  0
LINE
  5
1B5
330
1F
100
AcDbEntity
  8
作図線（太線）
  6
Continuous
 62
     7
100
AcDbLine
 10
506.9
 20
977.3
 30
0.0
 11
521.9
 21
977.3
 31
0.0
  0
LINE
  5
1B6
330
1F
100
AcDbEntity
  8
作図線（太線）
  6
Continuous
 62
     7
100
AcDbLine
 10
521.9
 20
977.3
 30
0.0
 11
561.9
 21
989.3
 31
0.0
  0
LINE
  5
1B7
330
1F
100
AcDbEntity
  8
作図線（太線）
  6
Continuous
 62
     7
100
AcDbLine
 10
561.9
 20
989.3
 30
0.0
 11
561.9
 21
1011.3
 31
0.0
  0
LINE
  5
1B8
330
1F
100
AcDbEntity
  8
作図線（太線）
  6
Continuous
 62
     7
100
AcDbLine
 10
533.4
 20
998.3
 30
0.0
 11
533.4
 21
990.3
 31
0.0
  0
LINE
  5
1B9
330
1F
100
AcDbEntity
  8
作図線（太線）
  6
Continuous
 62
     7
100
AcDbLine
 10
535.4
 20
998.3
 30
0.0
 11
535.4
 21
990.3
 31
0.0
  0
LINE
  5
1BA
330
1F
100
AcDbEntity
  8
作図線（太線）
  6
Continuous
 62
     7
100
AcDbLine
 10
556.4
 20
990.3
 30
0.0
 11
556.4
 21
998.3
 31
0.0
  0
LINE
  5
1BB
330
1F
100
AcDbEntity
  8
作図線（太線）
  6
Continuous
 62
     7
100
AcDbLine
 10
559.4
 20
991.8
 30
0.0
 11
556.4
 21
991.8
 31
0.0
  0
LINE
  5
1BC
330
1F
100
AcDbEntity
  8
作図線（太線）
  6
Continuous
 62
     7
100
AcDbLine
 10
559.4
 20
996.8
 30
0.0
 11
556.4
 21
996.8
 31
0.0
  0
LINE
  5
1BD
330
1F
100
AcDbEntity
  8
作図線（太線）
  6
Continuous
 62
     7
100
AcDbLine
 10
559.4
 20
991.8
 30
0.0
 11
559.4
 21
996.8
 31
0.0
  0
LINE
  5
1BE
330
1F
100
AcDbEntity
  8
作図線（太線）
  6
EXLTYPE3
 62
     3
100
AcDbLine
 10
540.4
 20
990.3
 30
0.0
 11
540.4
 21
998.3
 31
0.0
  0
LINE
  5
1BF
330
1F
100
AcDbEntity
  8
作図線（太線）
  6
Continuous
 62
     7
100
AcDbLine
 10
556.4
 20
998.3
 30
0.0
 11
533.4
 21
998.3
 31
0.0
  0
LINE
  5
1C0
330
1F
100
AcDbEntity
  8
作図線（太線）
  6
Continuous
 62
     7
100
AcDbLine
 10
556.4
 20
990.3
 30
0.0
 11
533.4
 21
990.3
 31
0.0
  0
LINE
  5
1C1
330
1F
100
AcDbEntity
  8
作図線（太線）
  6
EXLTYPE3
 62
     3
100
AcDbLine
 10
565.0
 20
994.3
 30
0.0
 11
500.9
 21
994.3
 31
0.0
  0
LINE
  5
1C2
330
1F
100
AcDbEntity
  8
作図線（太線）
  6
EXLTYPE3
 62
     3
100
AcDbLine
 10
515.6
 20
928.1
 30
0.0
 11
527.6
 21
928.1
 31
0.0
  0
LINE
  5
1C3
330
1F
100
AcDbEntity
  8
作図線（太線）
  6
EXLTYPE3
 62
     3
100
AcDbLine
 10
514.1
 20
948.1
 30
0.0
 11
527.3
 21
948.1
 31
0.0
  0
LINE
  5
1C4
330
1F
100
AcDbEntity
  8
作図線（太線）
  6
EXLTYPE3
 62
     3
100
AcDbLine
 10
520.9
 20
915.1
 30
0.0
 11
520.9
 21
956.3
 31
0.0
  0
CIRCLE
  5
1C5
330
1F
100
AcDbEntity
  8
作図線（太線）
  6
Continuous
 62
     3
100
AcDbCircle
 10
520.9
 20
928.1
 30
0.0
 40
2.0
  0
CIRCLE
  5
1C6
330
1F
100
AcDbEntity
  8
作図線（太線）
  6
Continuous
 62
     3
100
AcDbCircle
 10
520.9
 20
948.1
 30
0.0
 40
2.0
  0
ARC
  5
1C7
330
1F
100
AcDbEntity
  8
作図線（太線）
  6
Continuous
 62
     7
100
AcDbCircle
 10
520.9
 20
926.1
 30
0.0
 40
2.5
100
AcDbArc
 50
180.0
 51
0.0
  0
ARC
  5
1C8
330
1F
100
AcDbEntity
  8
作図線（太線）
  6
Continuous
 62
     7
100
AcDbCircle
 10
520.9
 20
930.1
 30
0.0
 40
2.5
100
AcDbArc
 50
0.0
 51
180.0
  0
LINE
  5
1C9
330
1F
100
AcDbEntity
  8
作図線（太線）
  6
Continuous
 62
     7
100
AcDbLine
 10
523.4
 20
930.1
 30
0.0
 11
523.4
 21
926.1
 31
0.0
  0
LINE
  5
1CA
330
1F
100
AcDbEntity
  8
作図線（太線）
  6
Continuous
 62
     7
100
AcDbLine
 10
518.4
 20
930.1
 30
0.0
 11
518.4
 21
926.1
 31
0.0
  0
ARC
  5
1CB
330
1F
100
AcDbEntity
  8
作図線（太線）
  6
Continuous
 62
     7
100
AcDbCircle
 10
520.9
 20
946.1
 30
0.0
 40
2.5
100
AcDbArc
 50
180.0
 51
0.0
  0
ARC
  5
1CC
330
1F
100
AcDbEntity
  8
作図線（太線）
  6
Continuous
 62
     7
100
AcDbCircle
 10
520.9
 20
950.1
 30
0.0
 40
2.5
100
AcDbArc
 50
0.0
 51
180.0
  0
LINE
  5
1CD
330
1F
100
AcDbEntity
  8
作図線（太線）
  6
Continuous
 62
     7
100
AcDbLine
 10
523.4
 20
950.1
 30
0.0
 11
523.4
 21
946.1
 31
0.0
  0
LINE
  5
1CE
330
1F
100
AcDbEntity
  8
作図線（太線）
  6
Continuous
 62
     7
100
AcDbLine
 10
518.4
 20
950.1
 30
0.0
 11
518.4
 21
946.1
 31
0.0
  0
LINE
  5
1CF
330
1F
100
AcDbEntity
  8
作図線（太線）
  6
Continuous
 62
     7
100
AcDbLine
 10
529.9
 20
915.1
 30
0.0
 11
529.9
 21
960.1
 31
0.0
  0
LINE
  5
1D0
330
1F
100
AcDbEntity
  8
作図線（太線）
  6
Continuous
 62
     7
100
AcDbLine
 10
511.9
 20
960.1
 30
0.0
 11
529.9
 21
960.1
 31
0.0
  0
LINE
  5
1D1
330
1F
100
AcDbEntity
  8
作図線（太線）
  6
Continuous
 62
     7
100
AcDbLine
 10
511.9
 20
913.9
 30
0.0
 11
511.9
 21
960.1
 31
0.0
  0
LINE
  5
1D2
330
1F
100
AcDbEntity
  8
作図線（太線）
  6
Continuous
 62
     7
100
AcDbLine
 10
559.5
 20
913.9
 30
0.0
 11
559.5
 21
907.5
 31
0.0
  0
LINE
  5
1D3
330
1F
100
AcDbEntity
  8
作図線（太線）
  6
Continuous
 62
     7
100
AcDbLine
 10
551.2
 20
907.5
 30
0.0
 11
559.5
 21
907.5
 31
0.0
  0
LINE
  5
1D4
330
1F
100
AcDbEntity
  8
作図線（太線）
  6
Continuous
 62
     7
100
AcDbLine
 10
551.2
 20
913.9
 30
0.0
 11
551.2
 21
906.9
 31
0.0
  0
LINE
  5
1D5
330
1F
100
AcDbEntity
  8
作図線（太線）
  6
Continuous
 62
     7
100
AcDbLine
 10
544.0
 20
906.9
 30
0.0
 11
551.2
 21
906.9
 31
0.0
  0
LINE
  5
1D6
330
1F
100
AcDbEntity
  8
作図線（太線）
  6
Continuous
 62
     7
100
AcDbLine
 10
544.0
 20
913.9
 30
0.0
 11
544.0
 21
898.2
 31
0.0
  0
LINE
  5
1D7
330
1F
100
AcDbEntity
  8
作図線（太線）
  6
Continuous
 62
     7
100
AcDbLine
 10
550.5
 20
906.9
 30
0.0
 11
550.5
 21
898.2
 31
0.0
  0
LINE
  5
1D8
330
1F
100
AcDbEntity
  8
作図線（太線）
  6
Continuous
 62
     7
100
AcDbLine
 10
544.0
 20
898.2
 30
0.0
 11
550.5
 21
898.2
 31
0.0
  0
LINE
  5
1D9
330
1F
100
AcDbEntity
  8
作図線（太線）
  6
Continuous
 62
     7
100
AcDbLine
 10
551.6
 20
913.9
 30
0.0
 11
559.5
 21
913.9
 31
0.0
  0
LINE
  5
1DA
330
1F
100
AcDbEntity
  8
作図線（太線）
  6
Continuous
 62
     7
100
AcDbLine
 10
551.6
 20
913.9
 30
0.0
 11
551.6
 21
915.1
 31
0.0
  0
LINE
  5
1DB
330
1F
100
AcDbEntity
  8
作図線（太線）
  6
Continuous
 62
     7
100
AcDbLine
 10
551.6
 20
913.9
 30
0.0
 11
511.9
 21
913.9
 31
0.0
  0
LINE
  5
1DC
330
1F
100
AcDbEntity
  8
作図線（太線）
  6
Continuous
 62
     7
100
AcDbLine
 10
511.9
 20
915.1
 30
0.0
 11
551.6
 21
915.1
 31
0.0
  0
LINE
  5
1DD
330
1F
100
AcDbEntity
  8
作図線（太線）
  6
Continuous
 62
     7
100
AcDbLine
 10
511.9
 20
837.3
 30
0.0
 11
503.4
 21
837.3
 31
0.0
  0
LINE
  5
1DE
330
1F
100
AcDbEntity
  8
作図線（太線）
  6
Continuous
 62
     7
100
AcDbLine
 10
511.9
 20
807.3
 30
0.0
 11
503.4
 21
807.3
 31
0.0
  0
LINE
  5
1DF
330
1F
100
AcDbEntity
  8
作図線（太線）
  6
Continuous
 62
     7
100
AcDbLine
 10
503.4
 20
837.3
 30
0.0
 11
503.4
 21
807.3
 31
0.0
  0
CIRCLE
  5
1E0
330
1F
100
AcDbEntity
  8
作図線（太線）
  6
Continuous
 62
     7
100
AcDbCircle
 10
515.9
 20
832.3
 30
0.0
 40
1.0
  0
CIRCLE
  5
1E1
330
1F
100
AcDbEntity
  8
作図線（太線）
  6
Continuous
 62
     3
100
AcDbCircle
 10
515.9
 20
832.3
 30
0.0
 40
1.5
  0
CIRCLE
  5
1E2
330
1F
100
AcDbEntity
  8
作図線（太線）
  6
Continuous
 62
     7
100
AcDbCircle
 10
515.9
 20
812.3
 30
0.0
 40
1.0
  0
CIRCLE
  5
1E3
330
1F
100
AcDbEntity
  8
作図線（太線）
  6
Continuous
 62
     3
100
AcDbCircle
 10
515.9
 20
812.3
 30
0.0
 40
1.5
  0
LINE
  5
1E4
330
1F
100
AcDbEntity
  8
作図線（太線）
  6
Continuous
 62
     7
100
AcDbLine
 10
511.9
 20
837.3
 30
0.0
 11
511.9
 21
807.3
 31
0.0
  0
LINE
  5
1E5
330
1F
100
AcDbEntity
  8
作図線（太線）
  6
Continuous
 62
     7
100
AcDbLine
 10
521.9
 20
837.3
 30
0.0
 11
521.9
 21
807.3
 31
0.0
  0
LINE
  5
1E6
330
1F
100
AcDbEntity
  8
作図線（太線）
  6
Continuous
 62
     7
100
AcDbLine
 10
521.9
 20
837.3
 30
0.0
 11
511.9
 21
837.3
 31
0.0
  0
LINE
  5
1E7
330
1F
100
AcDbEntity
  8
作図線（太線）
  6
Continuous
 62
     7
100
AcDbLine
 10
521.9
 20
807.3
 30
0.0
 11
511.9
 21
807.3
 31
0.0
  0
LINE
  5
1E8
330
1F
100
AcDbEntity
  8
作図線（太線）
  6
Continuous
 62
     7
100
AcDbLine
 10
513.4
 20
837.3
 30
0.0
 11
513.4
 21
807.3
 31
0.0
  0
LINE
  5
1E9
330
1F
100
AcDbEntity
  8
作図線（太線）
  6
EXLTYPE3
 62
     3
100
AcDbLine
 10
519.5
 20
832.3
 30
0.0
 11
513.3
 21
832.3
 31
0.0
  0
LINE
  5
1EA
330
1F
100
AcDbEntity
  8
作図線（太線）
  6
EXLTYPE3
 62
     3
100
AcDbLine
 10
520.4
 20
812.3
 30
0.0
 11
514.9
 21
812.3
 31
0.0
  0
LINE
  5
1EB
330
1F
100
AcDbEntity
  8
作図線（太線）
  6
Continuous
 62
     7
100
AcDbLine
 10
511.9
 20
1009.3
 30
0.0
 11
503.4
 21
1009.3
 31
0.0
  0
LINE
  5
1EC
330
1F
100
AcDbEntity
  8
作図線（太線）
  6
Continuous
 62
     7
100
AcDbLine
 10
511.9
 20
979.3
 30
0.0
 11
503.4
 21
979.3
 31
0.0
  0
LINE
  5
1ED
330
1F
100
AcDbEntity
  8
作図線（太線）
  6
Continuous
 62
     7
100
AcDbLine
 10
503.4
 20
1009.3
 30
0.0
 11
503.4
 21
979.3
 31
0.0
  0
CIRCLE
  5
1EE
330
1F
100
AcDbEntity
  8
作図線（太線）
  6
Continuous
 62
     7
100
AcDbCircle
 10
515.9
 20
1004.3
 30
0.0
 40
1.0
  0
CIRCLE
  5
1EF
330
1F
100
AcDbEntity
  8
作図線（太線）
  6
Continuous
 62
     3
100
AcDbCircle
 10
515.9
 20
1004.3
 30
0.0
 40
1.5
  0
CIRCLE
  5
1F0
330
1F
100
AcDbEntity
  8
作図線（太線）
  6
Continuous
 62
     7
100
AcDbCircle
 10
515.9
 20
984.3
 30
0.0
 40
1.0
  0
CIRCLE
  5
1F1
330
1F
100
AcDbEntity
  8
作図線（太線）
  6
Continuous
 62
     3
100
AcDbCircle
 10
515.9
 20
984.3
 30
0.0
 40
1.5
  0
LINE
  5
1F2
330
1F
100
AcDbEntity
  8
作図線（太線）
  6
Continuous
 62
     7
100
AcDbLine
 10
511.9
 20
1009.3
 30
0.0
 11
511.9
 21
979.3
 31
0.0
  0
LINE
  5
1F3
330
1F
100
AcDbEntity
  8
作図線（太線）
  6
Continuous
 62
     7
100
AcDbLine
 10
521.9
 20
1009.3
 30
0.0
 11
521.9
 21
979.3
 31
0.0
  0
LINE
  5
1F4
330
1F
100
AcDbEntity
  8
作図線（太線）
  6
Continuous
 62
     7
100
AcDbLine
 10
521.9
 20
1009.3
 30
0.0
 11
511.9
 21
1009.3
 31
0.0
  0
LINE
  5
1F5
330
1F
100
AcDbEntity
  8
作図線（太線）
  6
Continuous
 62
     7
100
AcDbLine
 10
521.9
 20
979.3
 30
0.0
 11
511.9
 21
979.3
 31
0.0
  0
LINE
  5
1F6
330
1F
100
AcDbEntity
  8
作図線（太線）
  6
Continuous
 62
     7
100
AcDbLine
 10
513.4
 20
1009.3
 30
0.0
 11
513.4
 21
979.3
 31
0.0
  0
LINE
  5
1F7
330
1F
100
AcDbEntity
  8
作図線（太線）
  6
EXLTYPE3
 62
     3
100
AcDbLine
 10
519.5
 20
1004.3
 30
0.0
 11
513.3
 21
1004.3
 31
0.0
  0
LINE
  5
1F8
330
1F
100
AcDbEntity
  8
作図線（太線）
  6
EXLTYPE3
 62
     3
100
AcDbLine
 10
520.4
 20
984.3
 30
0.0
 11
514.9
 21
984.3
 31
0.0
  0
LINE
  5
1F9
330
1F
100
AcDbEntity
  8
作図線（太線）
  6
Continuous
 62
     7
100
AcDbLine
 10
553.9
 20
1022.5
 30
0.0
 11
553.9
 21
1025.9
 31
0.0
  0
LINE
  5
1FA
330
1F
100
AcDbEntity
  8
作図線（太線）
  6
Continuous
 62
     7
100
AcDbLine
 10
531.9
 20
1011.3
 30
0.0
 11
531.9
 21
1032.3
 31
0.0
  0
LINE
  5
1FB
330
1F
100
AcDbEntity
  8
作図線（太線）
  6
Continuous
 62
     7
100
AcDbLine
 10
565.9
 20
984.3
 30
0.0
 11
544.9
 21
984.3
 31
0.0
  0
LINE
  5
1FC
330
1F
100
AcDbEntity
  8
作図線（太線）
  6
Continuous
 62
     7
100
AcDbLine
 10
536.4
 20
981.65
 30
0.0
 11
536.4
 21
915.1
 31
0.0
  0
LINE
  5
1FD
330
1F
100
AcDbEntity
  8
作図線（太線）
  6
Continuous
 62
     7
100
AcDbLine
 10
536.4
 20
913.9
 30
0.0
 11
536.4
 21
802.3
 31
0.0
  0
LINE
  5
1FE
330
1F
100
AcDbEntity
  8
作図線（太線）
  6
Continuous
 62
     7
100
AcDbLine
 10
536.9
 20
981.8
 30
0.0
 11
536.9
 21
915.1
 31
0.0
  0
LINE
  5
1FF
330
1F
100
AcDbEntity
  8
作図線（太線）
  6
Continuous
 62
     7
100
AcDbLine
 10
536.9
 20
913.9
 30
0.0
 11
536.9
 21
802.3
 31
0.0
  0
LINE
  5
200
330
1F
100
AcDbEntity
  8
作図線（太線）
  6
Continuous
 62
     7
100
AcDbLine
 10
506.9
 20
1009.3
 30
0.0
 11
506.9
 21
1086.3
 31
0.0
  0
LINE
  5
201
330
1F
100
AcDbEntity
  8
作図線（太線）
  6
Continuous
 62
     7
100
AcDbLine
 10
506.9
 20
837.3
 30
0.0
 11
506.9
 21
979.3
 31
0.0
  0
LINE
  5
202
330
1F
100
AcDbEntity
  8
作図線（太線）
  6
Continuous
 62
     7
100
AcDbLine
 10
551.6
 20
1032.3
 30
0.0
 11
511.9
 21
1032.3
 31
0.0
  0
LINE
  5
203
330
1F
100
AcDbEntity
  8
作図線（太線）
  6
Continuous
 62
     7
100
AcDbLine
 10
511.9
 20
1033.5
 30
0.0
 11
559.5
 21
1033.5
 31
0.0
  0
CIRCLE
  5
204
330
1F
100
AcDbEntity
  8
作図線（太線）
  6
Continuous
 62
     3
100
AcDbCircle
 10
520.9
 20
1066.5
 30
0.0
 40
2.0
  0
CIRCLE
  5
205
330
1F
100
AcDbEntity
  8
作図線（太線）
  6
Continuous
 62
     3
100
AcDbCircle
 10
520.9
 20
1046.5
 30
0.0
 40
2.0
  0
CIRCLE
  5
206
330
1F
100
AcDbEntity
  8
作図線（太線）
  6
Continuous
 62
     7
100
AcDbCircle
 10
688.9
 20
964.3
 30
0.0
 40
3.5
  0
CIRCLE
  5
207
330
1F
100
AcDbEntity
  8
作図線（太線）
  6
Continuous
 62
     7
100
AcDbCircle
 10
688.9
 20
964.3
 30
0.0
 40
5.5
  0
CIRCLE
  5
208
330
1F
100
AcDbEntity
  8
作図線（太線）
  6
Continuous
 62
     7
100
AcDbCircle
 10
688.9
 20
893.3
 30
0.0
 40
3.5
  0
CIRCLE
  5
209
330
1F
100
AcDbEntity
  8
作図線（太線）
  6
Continuous
 62
     7
100
AcDbCircle
 10
688.9
 20
893.3
 30
0.0
 40
5.5
  0
CIRCLE
  5
20A
330
1F
100
AcDbEntity
  8
作図線（太線）
  6
Continuous
 62
     7
100
AcDbCircle
 10
688.9
 20
822.3
 30
0.0
 40
3.5
  0
CIRCLE
  5
20B
330
1F
100
AcDbEntity
  8
作図線（太線）
  6
Continuous
 62
     7
100
AcDbCircle
 10
688.9
 20
822.3
 30
0.0
 40
5.5
  0
CIRCLE
  5
20C
330
1F
100
AcDbEntity
  8
作図線（太線）
  6
Continuous
 62
     7
100
AcDbCircle
 10
688.9
 20
933.3
 30
0.0
 40
4.0
  0
CIRCLE
  5
20D
330
1F
100
AcDbEntity
  8
作図線（太線）
  6
Continuous
 62
     7
100
AcDbCircle
 10
688.9
 20
853.3
 30
0.0
 40
4.0
  0
CIRCLE
  5
20E
330
1F
100
AcDbEntity
  8
作図線（太線）
  6
Continuous
 62
     3
100
AcDbCircle
 10
688.9
 20
933.3
 30
0.0
 40
5.0
  0
CIRCLE
  5
20F
330
1F
100
AcDbEntity
  8
作図線（太線）
  6
Continuous
 62
     3
100
AcDbCircle
 10
688.9
 20
853.3
 30
0.0
 40
5.0
  0
LINE
  5
210
330
1F
100
AcDbEntity
  8
作図線（太線）
  6
EXLTYPE3
 62
     3
100
AcDbLine
 10
688.9
 20
984.3
 30
0.0
 11
688.9
 21
802.3
 31
0.0
  0
LINE
  5
211
330
1F
100
AcDbEntity
  8
作図線（太線）
  6
EXLTYPE3
 62
     3
100
AcDbLine
 10
704.2
 20
853.3
 30
0.0
 11
674.7
 21
853.3
 31
0.0
  0
LINE
  5
212
330
1F
100
AcDbEntity
  8
作図線（太線）
  6
EXLTYPE3
 62
     3
100
AcDbLine
 10
696.9
 20
822.3
 30
0.0
 11
677.2
 21
822.3
 31
0.0
  0
LINE
  5
213
330
1F
100
AcDbEntity
  8
作図線（太線）
  6
EXLTYPE3
 62
     3
100
AcDbLine
 10
696.9
 20
893.3
 30
0.0
 11
678.7
 21
893.3
 31
0.0
  0
LINE
  5
214
330
1F
100
AcDbEntity
  8
作図線（太線）
  6
EXLTYPE3
 62
     3
100
AcDbLine
 10
696.9
 20
964.3
 30
0.0
 11
679.2
 21
964.3
 31
0.0
  0
LINE
  5
215
330
1F
100
AcDbEntity
  8
作図線（太線）
  6
EXLTYPE3
 62
     3
100
AcDbLine
 10
700.8
 20
933.3
 30
0.0
 11
678.7
 21
933.3
 31
0.0
  0
CIRCLE
  5
216
330
1F
100
AcDbEntity
  8
作図線（太線）
  6
Continuous
 62
     7
100
AcDbCircle
 10
544.9
 20
964.3
 30
0.0
 40
3.5
  0
CIRCLE
  5
217
330
1F
100
AcDbEntity
  8
作図線（太線）
  6
Continuous
 62
     7
100
AcDbCircle
 10
544.9
 20
964.3
 30
0.0
 40
5.5
  0
CIRCLE
  5
218
330
1F
100
AcDbEntity
  8
作図線（太線）
  6
Continuous
 62
     7
100
AcDbCircle
 10
544.9
 20
893.3
 30
0.0
 40
3.5
  0
CIRCLE
  5
219
330
1F
100
AcDbEntity
  8
作図線（太線）
  6
Continuous
 62
     7
100
AcDbCircle
 10
544.9
 20
822.3
 30
0.0
 40
3.5
  0
CIRCLE
  5
21A
330
1F
100
AcDbEntity
  8
作図線（太線）
  6
Continuous
 62
     7
100
AcDbCircle
 10
544.9
 20
822.3
 30
0.0
 40
5.5
  0
CIRCLE
  5
21B
330
1F
100
AcDbEntity
  8
作図線（太線）
  6
Continuous
 62
     7
100
AcDbCircle
 10
544.9
 20
933.3
 30
0.0
 40
4.0
  0
CIRCLE
  5
21C
330
1F
100
AcDbEntity
  8
作図線（太線）
  6
Continuous
 62
     7
100
AcDbCircle
 10
544.9
 20
853.3
 30
0.0
 40
4.0
  0
CIRCLE
  5
21D
330
1F
100
AcDbEntity
  8
作図線（太線）
  6
Continuous
 62
     3
100
AcDbCircle
 10
544.9
 20
933.3
 30
0.0
 40
5.0
  0
CIRCLE
  5
21E
330
1F
100
AcDbEntity
  8
作図線（太線）
  6
Continuous
 62
     3
100
AcDbCircle
 10
544.9
 20
853.3
 30
0.0
 40
5.0
  0
LINE
  5
21F
330
1F
100
AcDbEntity
  8
作図線（太線）
  6
EXLTYPE3
 62
     3
100
AcDbLine
 10
544.9
 20
984.3
 30
0.0
 11
544.9
 21
802.3
 31
0.0
  0
LINE
  5
220
330
1F
100
AcDbEntity
  8
作図線（太線）
  6
EXLTYPE3
 62
     3
100
AcDbLine
 10
536.9
 20
822.3
 30
0.0
 11
556.6
 21
822.3
 31
0.0
  0
LINE
  5
221
330
1F
100
AcDbEntity
  8
作図線（太線）
  6
EXLTYPE3
 62
     3
100
AcDbLine
 10
536.9
 20
893.3
 30
0.0
 11
555.1
 21
893.3
 31
0.0
  0
LINE
  5
222
330
1F
100
AcDbEntity
  8
作図線（太線）
  6
EXLTYPE3
 62
     3
100
AcDbLine
 10
536.9
 20
964.3
 30
0.0
 11
554.6
 21
964.3
 31
0.0
  0
LINE
  5
223
330
1F
100
AcDbEntity
  8
作図線（太線）
  6
EXLTYPE3
 62
     3
100
AcDbLine
 10
533.0
 20
933.3
 30
0.0
 11
555.1
 21
933.3
 31
0.0
  0
LINE
  5
224
330
1F
100
AcDbEntity
  8
作図線（太線）
  6
EXLTYPE3
 62
     3
100
AcDbLine
 10
529.6
 20
853.3
 30
0.0
 11
559.1
 21
853.3
 31
0.0
  0
ARC
  5
225
330
1F
100
AcDbEntity
  8
作図線（太線）
  6
Continuous
 62
     7
100
AcDbCircle
 10
544.9
 20
893.3
 30
0.0
 40
5.5
100
AcDbArc
 50
99.418027
 51
62.987706
  0
LINE
  5
226
330
1F
100
AcDbEntity
  8
作図線（太線）
  6
EXLTYPE3
 62
     3
100
AcDbLine
 10
661.9
 20
695.3
 30
0.0
 11
571.9
 21
695.3
 31
0.0
  0
LINE
  5
227
330
1F
100
AcDbEntity
  8
作図線（太線）
  6
EXLTYPE3
 62
     3
100
AcDbLine
 10
581.9
 20
995.1
 30
0.0
 11
581.9
 21
1036.4
 31
0.0
  0
LINE
  5
228
330
1F
100
AcDbEntity
  8
作図線（太線）
  6
EXLTYPE3
 62
     3
100
AcDbLine
 10
588.4
 20
1038.19
 30
0.0
 11
588.4
 21
1028.59
 31
0.0
  0
LINE
  5
229
330
1F
100
AcDbEntity
  8
作図線（太線）
  6
EXLTYPE3
 62
     3
100
AcDbLine
 10
576.4
 20
1038.19
 30
0.0
 11
576.4
 21
1028.59
 31
0.0
  0
LINE
  5
22A
330
1F
100
AcDbEntity
  8
作図線（太線）
  6
EXLTYPE3
 62
     3
100
AcDbLine
 10
567.35
 20
1008.8
 30
0.0
 11
574.4
 21
1008.8
 31
0.0
  0
LINE
  5
22B
330
1F
100
AcDbEntity
  8
作図線（太線）
  6
EXLTYPE3
 62
     3
100
AcDbLine
 10
567.11
 20
993.8
 30
0.0
 11
575.0
 21
993.8
 31
0.0
  0
LINE
  5
22C
330
1F
100
AcDbEntity
  8
作図線（太線）
  6
EXLTYPE3
 62
     3
100
AcDbLine
 10
520.9
 20
1033.5
 30
0.0
 11
520.9
 21
1074.7
 31
0.0
  0
LINE
  5
22D
330
1F
100
AcDbEntity
  8
作図線（太線）
  6
EXLTYPE3
 62
     3
100
AcDbLine
 10
556.9
 20
1025.5
 30
0.0
 11
556.9
 21
1052.8
 31
0.0
  0
LINE
  5
22E
330
1F
100
AcDbEntity
  8
作図線（太線）
  6
EXLTYPE3
 62
     3
100
AcDbLine
 10
547.6
 20
1026.1
 30
0.0
 11
547.6
 21
1044.4
 31
0.0
  0
LINE
  5
22F
330
1F
100
AcDbEntity
  8
作図線（太線）
  6
EXLTYPE3
 62
     3
100
AcDbLine
 10
514.1
 20
1066.5
 30
0.0
 11
527.3
 21
1066.5
 31
0.0
  0
LINE
  5
230
330
1F
100
AcDbEntity
  8
作図線（太線）
  6
EXLTYPE3
 62
     3
100
AcDbLine
 10
515.6
 20
1046.5
 30
0.0
 11
527.6
 21
1046.5
 31
0.0
  0
LINE
  5
231
330
1F
100
AcDbEntity
  8
作図線（太線）
  6
EXLTYPE4
 62
     3
100
AcDbLine
 10
571.9
 20
795.3
 30
0.0
 11
571.9
 21
695.3
 31
0.0
  0
LINE
  5
232
330
1F
100
AcDbEntity
  8
作図線（太線）
  6
EXLTYPE4
 62
     3
100
AcDbLine
 10
661.9
 20
795.3
 30
0.0
 11
661.9
 21
695.3
 31
0.0
  0
LINE
  5
233
330
1F
100
AcDbEntity
  8
作図線（太線）
  6
EXLTYPE4
 62
     3
100
AcDbLine
 10
661.9
 20
795.3
 30
0.0
 11
616.9
 21
795.3
 31
0.0
  0
LINE
  5
234
330
1F
100
AcDbEntity
  8
作図線（太線）
  6
Continuous
 62
     7
100
AcDbLine
 10
1213.7
 20
1017.3
 30
0.0
 11
1213.7
 21
795.3
 31
0.0
  0
LINE
  5
235
330
1F
100
AcDbEntity
  8
作図線（太線）
  6
Continuous
 62
     7
100
AcDbLine
 10
1279.7
 20
795.3
 30
0.0
 11
1213.7
 21
795.3
 31
0.0
  0
LINE
  5
236
330
1F
100
AcDbEntity
  8
作図線（太線）
  6
EXLTYPE3
 62
     3
100
AcDbLine
 10
1253.7
 20
1024.2
 30
0.0
 11
1253.7
 21
1017.3
 31
0.0
  0
LINE
  5
237
330
1F
100
AcDbEntity
  8
作図線（太線）
  6
Continuous
 62
     7
100
AcDbLine
 10
1205.7
 20
1052.3
 30
0.0
 11
1205.7
 21
1067.3
 31
0.0
  0
LINE
  5
238
330
1F
100
AcDbEntity
  8
作図線（太線）
  6
Continuous
 62
     7
100
AcDbLine
 10
1207.7
 20
1067.3
 30
0.0
 11
1206.2
 21
1067.3
 31
0.0
  0
LINE
  5
239
330
1F
100
AcDbEntity
  8
作図線（太線）
  6
Continuous
 62
     7
100
AcDbLine
 10
1183.7
 20
1086.3
 30
0.0
 11
1183.7
 21
1146.3
 31
0.0
  0
LINE
  5
23A
330
1F
100
AcDbEntity
  8
作図線（太線）
  6
EXLTYPE3
 62
     3
100
AcDbLine
 10
1214.7
 20
1041.8
 30
0.0
 11
1214.7
 21
1095.1
 31
0.0
  0
LINE
  5
23B
330
1F
100
AcDbEntity
  8
作図線（太線）
  6
Continuous
 62
     7
100
AcDbLine
 10
1213.7
 20
1017.3
 30
0.0
 11
1213.7
 21
1032.3
 31
0.0
  0
LINE
  5
23C
330
1F
100
AcDbEntity
  8
作図線（太線）
  6
Continuous
 62
     7
100
AcDbLine
 10
1183.7
 20
1146.3
 30
0.0
 11
1183.7
 21
1257.3
 31
0.0
  0
ARC
  5
23D
330
1F
100
AcDbEntity
  8
作図線（太線）
  6
Continuous
 62
     7
100
AcDbCircle
 10
1196.7
 20
1257.3
 30
0.0
 40
13.0
100
AcDbArc
 50
90.0
 51
180.0
  0
LINE
  5
23E
330
1F
100
AcDbEntity
  8
作図線（太線）
  6
Continuous
 62
     7
100
AcDbLine
 10
1220.7
 20
1032.3
 30
0.0
 11
1230.7
 21
1032.3
 31
0.0
  0
LINE
  5
23F
330
1F
100
AcDbEntity
  8
作図線（太線）
  6
Continuous
 62
     7
100
AcDbLine
 10
1306.7
 20
822.3
 30
0.0
 11
1306.7
 21
802.3
 31
0.0
  0
LINE
  5
240
330
1F
100
AcDbEntity
  8
作図線（太線）
  6
Continuous
 62
     7
100
AcDbLine
 10
1473.7
 20
1126.3
 30
0.0
 11
1473.7
 21
1086.3
 31
0.0
  0
LINE
  5
241
330
1F
100
AcDbEntity
  8
作図線（太線）
  6
Continuous
 62
     7
100
AcDbLine
 10
1306.7
 20
822.3
 30
0.0
 11
1478.7
 21
822.3
 31
0.0
  0
LINE
  5
242
330
1F
100
AcDbEntity
  8
作図線（太線）
  6
Continuous
 62
     7
100
AcDbLine
 10
1438.7
 20
1086.3
 30
0.0
 11
1478.7
 21
1086.3
 31
0.0
  0
LINE
  5
243
330
1F
100
AcDbEntity
  8
作図線（太線）
  6
Continuous
 62
     7
100
AcDbLine
 10
1196.7
 20
1270.3
 30
0.0
 11
1460.7
 21
1270.3
 31
0.0
  0
LINE
  5
244
330
1F
100
AcDbEntity
  8
作図線（太線）
  6
Continuous
 62
     7
100
AcDbLine
 10
1473.7
 20
1126.3
 30
0.0
 11
1473.7
 21
1257.3
 31
0.0
  0
ARC
  5
245
330
1F
100
AcDbEntity
  8
作図線（太線）
  6
Continuous
 62
     7
100
AcDbCircle
 10
1460.7
 20
1257.3
 30
0.0
 40
13.0
100
AcDbArc
 50
0.0
 51
90.0
  0
LINE
  5
246
330
1F
100
AcDbEntity
  8
作図線（太線）
  6
Continuous
 62
     7
100
AcDbLine
 10
1473.7
 20
1126.3
 30
0.0
 11
1473.7
 21
1257.3
 31
0.0
  0
LINE
  5
247
330
1F
100
AcDbEntity
  8
作図線（太線）
  6
Continuous
 62
     7
100
AcDbLine
 10
1205.7
 20
1067.3
 30
0.0
 11
1194.7
 21
1078.3
 31
0.0
  0
LINE
  5
248
330
1F
100
AcDbEntity
  8
作図線（太線）
  6
Continuous
 62
     7
100
AcDbLine
 10
1206.2
 20
1067.3
 30
0.0
 11
1205.7
 21
1067.3
 31
0.0
  0
LINE
  5
249
330
1F
100
AcDbEntity
  8
作図線（太線）
  6
Continuous
 62
     7
100
AcDbLine
 10
1206.2
 20
1067.3
 30
0.0
 11
1205.7
 21
1067.3
 31
0.0
  0
LINE
  5
24A
330
1F
100
AcDbEntity
  8
作図線（太線）
  6
Continuous
 62
     7
100
AcDbLine
 10
1194.7
 20
1086.3
 30
0.0
 11
1183.7
 21
1086.3
 31
0.0
  0
LINE
  5
24B
330
1F
100
AcDbEntity
  8
作図線（太線）
  6
EXLTYPE3
 62
     3
100
AcDbLine
 10
1253.7
 20
1052.3
 30
0.0
 11
1253.7
 21
1187.6
 31
0.0
  0
LINE
  5
24C
330
1F
100
AcDbEntity
  8
作図線（太線）
  6
Continuous
 62
     7
100
AcDbLine
 10
1228.7
 20
1017.3
 30
0.0
 11
1237.7
 21
1017.3
 31
0.0
  0
LINE
  5
24D
330
1F
100
AcDbEntity
  8
作図線（太線）
  6
Continuous
 62
     7
100
AcDbLine
 10
1228.7
 20
1044.3
 30
0.0
 11
1228.7
 21
1032.3
 31
0.0
  0
LINE
  5
24E
330
1F
100
AcDbEntity
  8
作図線（太線）
  6
EXLTYPE3
 62
     3
100
AcDbLine
 10
1225.7
 20
991.9
 30
0.0
 11
1225.7
 21
1043.4
 31
0.0
  0
LINE
  5
24F
330
1F
100
AcDbEntity
  8
作図線（太線）
  6
EXLTYPE3
 62
     3
100
AcDbLine
 10
1279.7
 20
795.3
 30
0.0
 11
1279.7
 21
695.3
 31
0.0
  0
LINE
  5
250
330
1F
100
AcDbEntity
  8
作図線（太線）
  6
EXLTYPE3
 62
     3
100
AcDbLine
 10
1213.7
 20
795.3
 30
0.0
 11
1213.7
 21
695.3
 31
0.0
  0
LINE
  5
251
330
1F
100
AcDbEntity
  8
作図線（太線）
  6
EXLTYPE3
 62
     3
100
AcDbLine
 10
1279.7
 20
695.3
 30
0.0
 11
1213.7
 21
695.3
 31
0.0
  0
LINE
  5
252
330
1F
100
AcDbEntity
  8
作図線（太線）
  6
EXLTYPE3
 62
     3
100
AcDbLine
 10
1253.7
 20
1037.3
 30
0.0
 11
1253.7
 21
971.1
 31
0.0
  0
LINE
  5
253
330
1F
100
AcDbEntity
  8
作図線（太線）
  6
EXLTYPE3
 62
     3
100
AcDbLine
 10
1193.6
 20
1062.3
 30
0.0
 11
1223.2
 21
1062.3
 31
0.0
  0
LINE
  5
254
330
1F
100
AcDbEntity
  8
作図線（太線）
  6
EXLTYPE4
 62
     3
100
AcDbLine
 10
1279.7
 20
802.3
 30
0.0
 11
1183.7
 21
802.3
 31
0.0
  0
LINE
  5
255
330
1F
100
AcDbEntity
  8
作図線（太線）
  6
EXLTYPE4
 62
     3
100
AcDbLine
 10
1183.7
 20
1086.3
 30
0.0
 11
1183.7
 21
802.3
 31
0.0
  0
LINE
  5
256
330
1F
100
AcDbEntity
  8
作図線（太線）
  6
Continuous
 62
     7
100
AcDbLine
 10
1194.7
 20
1086.3
 30
0.0
 11
1194.7
 21
1078.3
 31
0.0
  0
LINE
  5
257
330
1F
100
AcDbEntity
  8
作図線（太線）
  6
Continuous
 62
     7
100
AcDbLine
 10
1223.7
 20
1086.3
 30
0.0
 11
1223.7
 21
1067.3
 31
0.0
  0
LINE
  5
258
330
1F
100
AcDbEntity
  8
作図線（太線）
  6
Continuous
 62
     7
100
AcDbLine
 10
1192.75
 20
1086.3
 30
0.0
 11
1438.7
 21
1086.3
 31
0.0
  0
LINE
  5
259
330
1F
100
AcDbEntity
  8
作図線（太線）
  6
Continuous
 62
     7
100
AcDbLine
 10
1253.7
 20
1086.3
 30
0.0
 11
1253.7
 21
802.3
 31
0.0
  0
LINE
  5
25A
330
1F
100
AcDbEntity
  8
作図線（太線）
  6
Continuous
 62
     7
100
AcDbLine
 10
1253.7
 20
1086.3
 30
0.0
 11
1438.7
 21
1086.3
 31
0.0
  0
LINE
  5
25B
330
1F
100
AcDbEntity
  8
作図線（太線）
  6
Continuous
 62
     7
100
AcDbLine
 10
1253.7
 20
802.3
 30
0.0
 11
1306.7
 21
802.3
 31
0.0
  0
LINE
  5
25C
330
1F
100
AcDbEntity
  8
作図線（太線）
  6
Continuous
 62
     7
100
AcDbLine
 10
1207.7
 20
1067.3
 30
0.0
 11
1253.7
 21
1067.3
 31
0.0
  0
LINE
  5
25D
330
1F
100
AcDbEntity
  8
作図線（太線）
  6
Continuous
 62
     7
100
AcDbLine
 10
1205.7
 20
1052.3
 30
0.0
 11
1253.7
 21
1052.3
 31
0.0
  0
LINE
  5
25E
330
1F
100
AcDbEntity
  8
作図線（太線）
  6
Continuous
 62
     7
100
AcDbLine
 10
1279.7
 20
802.3
 30
0.0
 11
1279.7
 21
795.3
 31
0.0
  0
LINE
  5
25F
330
1F
100
AcDbEntity
  8
作図線（太線）
  6
Continuous
 62
     7
100
AcDbLine
 10
1279.7
 20
802.3
 30
0.0
 11
1306.7
 21
802.3
 31
0.0
  0
LINE
  5
260
330
1F
100
AcDbEntity
  8
作図線（太線）
  6
Continuous
 62
     7
100
AcDbLine
 10
726.9
 20
802.3
 30
0.0
 11
726.9
 21
1086.3
 31
0.0
  0
LINE
  5
261
330
1F
100
AcDbEntity
  8
作図線（太線）
  6
Continuous
 62
     7
100
AcDbLine
 10
506.9
 20
802.3
 30
0.0
 11
506.9
 21
807.3
 31
0.0
  0
LINE
  5
262
330
1F
100
AcDbEntity
  8
作図線（太線）
  6
Continuous
 62
     7
100
AcDbLine
 10
1253.7
 20
1017.3
 30
0.0
 11
1213.7
 21
1017.3
 31
0.0
  0
LINE
  5
263
330
1F
100
AcDbEntity
  8
作図線（太線）
  6
Continuous
 62
     7
100
AcDbLine
 10
1228.7
 20
1044.3
 30
0.0
 11
1253.7
 21
1044.3
 31
0.0
  0
LINE
  5
264
330
1F
100
AcDbEntity
  8
作図線（太線）
  6
Continuous
 62
     7
100
AcDbLine
 10
1213.7
 20
1032.3
 30
0.0
 11
1253.7
 21
1032.3
 31
0.0
  0
LINE
  5
265
330
1F
100
AcDbEntity
  8
作図線（太線）
  6
Continuous
 62
     7
100
AcDbLine
 10
1241.2
 20
1044.3
 30
0.0
 11
1241.2
 21
1052.3
 31
0.0
  0
LINE
  5
266
330
1F
100
AcDbEntity
  8
作図線（太線）
  6
Continuous
 62
     3
100
AcDbLine
 10
1244.2
 20
1052.3
 30
0.0
 11
1244.2
 21
1044.3
 31
0.0
  0
LINE
  5
267
330
1F
100
AcDbEntity
  8
作図線（太線）
  6
Continuous
 62
     7
100
AcDbLine
 10
1279.7
 20
801.3
 30
0.0
 11
1237.7
 21
801.3
 31
0.0
  0
LINE
  5
268
330
1F
100
AcDbEntity
  8
作図線（太線）
  6
Continuous
 62
     7
100
AcDbLine
 10
1237.7
 20
801.3
 30
0.0
 11
1237.7
 21
795.3
 31
0.0
  0
LINE
  5
269
330
1F
100
AcDbEntity
  8
作図線（太線）
  6
Continuous
 62
     7
100
AcDbLine
 10
1255.7
 20
802.3
 30
0.0
 11
1255.7
 21
801.3
 31
0.0
  0
LINE
  5
26A
330
1F
100
AcDbEntity
  8
作図線（太線）
  6
Continuous
 62
     7
100
AcDbLine
 10
1266.2
 20
802.3
 30
0.0
 11
1266.2
 21
801.3
 31
0.0
  0
LINE
  5
26B
330
1F
100
AcDbEntity
  8
作図線（太線）
  6
Continuous
 62
     7
100
AcDbLine
 10
1269.2
 20
802.3
 30
0.0
 11
1269.2
 21
801.3
 31
0.0
  0
LINE
  5
26C
330
1F
100
AcDbEntity
  8
作図線（太線）
  6
EXLTYPE3
 62
     3
100
AcDbLine
 10
1321.7
 20
842.1
 30
0.0
 11
1321.7
 21
797.5
 31
0.0
  0
LINE
  5
26D
330
1F
100
AcDbEntity
  8
作図線（太線）
  6
EXLTYPE3
 62
     3
100
AcDbLine
 10
1388.7
 20
842.1
 30
0.0
 11
1388.7
 21
799.5
 31
0.0
  0
LINE
  5
26E
330
1F
100
AcDbEntity
  8
作図線（太線）
  6
EXLTYPE3
 62
     3
100
AcDbLine
 10
1448.7
 20
842.1
 30
0.0
 11
1448.7
 21
797.0
 31
0.0
  0
LINE
  5
26F
330
1F
100
AcDbEntity
  8
作図線（太線）
  6
EXLTYPE3
 62
     3
100
AcDbLine
 10
616.9
 20
907.1
 30
0.0
 11
616.9
 21
1308.0
 31
0.0
  0
LINE
  5
270
330
1F
100
AcDbEntity
  8
作図線（太線）
  6
EXLTYPE3
 62
     3
100
AcDbLine
 10
1253.7
 20
1187.6
 30
0.0
 11
1253.7
 21
1292.5
 31
0.0
  0
LINE
  5
271
330
1F
100
AcDbEntity
  8
作図線（太線）
  6
EXLTYPE3
 62
     3
100
AcDbLine
 10
1253.7
 20
1001.3
 30
0.0
 11
1253.7
 21
692.5
 31
0.0
  0
LINE
  5
272
330
1F
100
AcDbEntity
  8
作図線（太線）
  6
Continuous
 62
     7
100
AcDbLine
 10
1306.7
 20
646.5
 30
0.0
 11
1306.7
 21
426.5
 31
0.0
  0
LINE
  5
273
330
1F
100
AcDbEntity
  8
作図線（太線）
  6
Continuous
 62
     7
100
AcDbLine
 10
1478.7
 20
646.5
 30
0.0
 11
1478.7
 21
426.5
 31
0.0
  0
CIRCLE
  5
274
330
1F
100
AcDbEntity
  8
作図線（太線）
  6
Continuous
 62
     7
100
AcDbCircle
 10
1321.7
 20
466.5
 30
0.0
 40
4.0
  0
CIRCLE
  5
275
330
1F
100
AcDbEntity
  8
作図線（太線）
  6
Continuous
 62
     7
100
AcDbCircle
 10
1388.7
 20
466.5
 30
0.0
 40
4.0
  0
CIRCLE
  5
276
330
1F
100
AcDbEntity
  8
作図線（太線）
  6
Continuous
 62
     7
100
AcDbCircle
 10
1448.7
 20
466.5
 30
0.0
 40
4.0
  0
CIRCLE
  5
277
330
1F
100
AcDbEntity
  8
作図線（太線）
  6
Continuous
 62
     3
100
AcDbCircle
 10
1321.7
 20
466.5
 30
0.0
 40
5.0
  0
CIRCLE
  5
278
330
1F
100
AcDbEntity
  8
作図線（太線）
  6
Continuous
 62
     3
100
AcDbCircle
 10
1388.7
 20
466.5
 30
0.0
 40
5.0
  0
CIRCLE
  5
279
330
1F
100
AcDbEntity
  8
作図線（太線）
  6
Continuous
 62
     3
100
AcDbCircle
 10
1448.7
 20
466.5
 30
0.0
 40
5.0
  0
CIRCLE
  5
27A
330
1F
100
AcDbEntity
  8
作図線（太線）
  6
Continuous
 62
     7
100
AcDbCircle
 10
1448.7
 20
606.5
 30
0.0
 40
4.0
  0
CIRCLE
  5
27B
330
1F
100
AcDbEntity
  8
作図線（太線）
  6
Continuous
 62
     7
100
AcDbCircle
 10
1388.7
 20
606.5
 30
0.0
 40
4.0
  0
CIRCLE
  5
27C
330
1F
100
AcDbEntity
  8
作図線（太線）
  6
Continuous
 62
     7
100
AcDbCircle
 10
1321.7
 20
606.5
 30
0.0
 40
4.0
  0
CIRCLE
  5
27D
330
1F
100
AcDbEntity
  8
作図線（太線）
  6
Continuous
 62
     3
100
AcDbCircle
 10
1448.7
 20
606.5
 30
0.0
 40
5.0
  0
CIRCLE
  5
27E
330
1F
100
AcDbEntity
  8
作図線（太線）
  6
Continuous
 62
     3
100
AcDbCircle
 10
1388.7
 20
606.5
 30
0.0
 40
5.0
  0
CIRCLE
  5
27F
330
1F
100
AcDbEntity
  8
作図線（太線）
  6
Continuous
 62
     3
100
AcDbCircle
 10
1321.7
 20
606.5
 30
0.0
 40
5.0
  0
LINE
  5
280
330
1F
100
AcDbEntity
  8
作図線（太線）
  6
Continuous
 62
     7
100
AcDbLine
 10
1306.7
 20
646.5
 30
0.0
 11
1478.7
 21
646.5
 31
0.0
  0
LINE
  5
281
330
1F
100
AcDbEntity
  8
作図線（太線）
  6
Continuous
 62
     7
100
AcDbLine
 10
1306.7
 20
426.5
 30
0.0
 11
1478.7
 21
426.5
 31
0.0
  0
LINE
  5
282
330
1F
100
AcDbEntity
  8
作図線（太線）
  6
EXLTYPE3
 62
     3
100
AcDbLine
 10
1309.2
 20
466.5
 30
0.0
 11
1472.1
 21
466.5
 31
0.0
  0
LINE
  5
283
330
1F
100
AcDbEntity
  8
作図線（太線）
  6
EXLTYPE3
 62
     3
100
AcDbLine
 10
1321.7
 20
628.7
 30
0.0
 11
1321.7
 21
450.5
 31
0.0
  0
LINE
  5
284
330
1F
100
AcDbEntity
  8
作図線（太線）
  6
EXLTYPE3
 62
     3
100
AcDbLine
 10
1388.7
 20
627.9
 30
0.0
 11
1388.7
 21
450.0
 31
0.0
  0
LINE
  5
285
330
1F
100
AcDbEntity
  8
作図線（太線）
  6
EXLTYPE3
 62
     3
100
AcDbLine
 10
1448.7
 20
630.3
 30
0.0
 11
1448.7
 21
450.0
 31
0.0
  0
LINE
  5
286
330
1F
100
AcDbEntity
  8
作図線（太線）
  6
EXLTYPE3
 62
     3
100
AcDbLine
 10
1309.2
 20
606.5
 30
0.0
 11
1472.1
 21
606.5
 31
0.0
  0
LINE
  5
287
330
1F
100
AcDbEntity
  8
作図線（太線）
  6
EXLTYPE3
 62
     3
100
AcDbLine
 10
1272.2
 20
536.5
 30
0.0
 11
1509.9
 21
536.5
 31
0.0
  0
LINE
  5
288
330
1F
100
AcDbEntity
  8
作図線（太線）
  6
EXLTYPE3
 62
     3
100
AcDbLine
 10
918.632679
 20
1045.068764
 30
0.0
 11
918.506403
 21
1045.068764
 31
0.0
  0
LINE
  5
289
330
1F
100
AcDbEntity
  8
作図線（太線）
  6
Continuous
 62
     7
100
AcDbLine
 10
733.7
 20
1086.3
 30
0.0
 11
933.7
 21
1086.3
 31
0.0
  0
LINE
  5
28A
330
1F
100
AcDbEntity
  8
作図線（太線）
  6
Continuous
 62
     7
100
AcDbLine
 10
909.7
 20
921.3
 30
0.0
 11
757.7
 21
921.3
 31
0.0
  0
LINE
  5
28B
330
1F
100
AcDbEntity
  8
作図線（太線）
  6
Continuous
 62
     7
100
AcDbLine
 10
909.7
 20
1041.3
 30
0.0
 11
757.7
 21
1041.3
 31
0.0
  0
LINE
  5
28C
330
1F
100
AcDbEntity
  8
作図線（太線）
  6
EXLTYPE3
 62
     3
100
AcDbLine
 10
873.7
 20
1046.3
 30
0.0
 11
873.7
 21
1093.491685
 31
0.0
  0
LINE
  5
28D
330
1F
100
AcDbEntity
  8
作図線（太線）
  6
EXLTYPE3
 62
     3
100
AcDbLine
 10
793.7
 20
1050.891685
 30
0.0
 11
793.7
 21
1095.291685
 31
0.0
  0
CIRCLE
  5
28E
330
1F
100
AcDbEntity
  8
作図線（太線）
  6
Continuous
 62
     7
100
AcDbCircle
 10
773.7
 20
891.3
 30
0.0
 40
11.0
  0
CIRCLE
  5
28F
330
1F
100
AcDbEntity
  8
作図線（太線）
  6
Continuous
 62
     7
100
AcDbCircle
 10
833.7
 20
891.3
 30
0.0
 40
11.0
  0
CIRCLE
  5
290
330
1F
100
AcDbEntity
  8
作図線（太線）
  6
Continuous
 62
     7
100
AcDbCircle
 10
893.7
 20
891.3
 30
0.0
 40
11.0
  0
LINE
  5
291
330
1F
100
AcDbEntity
  8
作図線（太線）
  6
Continuous
 62
     7
100
AcDbLine
 10
757.7
 20
1041.3
 30
0.0
 11
757.7
 21
921.3
 31
0.0
  0
LINE
  5
292
330
1F
100
AcDbEntity
  8
作図線（太線）
  6
Continuous
 62
     7
100
AcDbLine
 10
909.7
 20
1041.3
 30
0.0
 11
909.7
 21
921.3
 31
0.0
  0
LINE
  5
293
330
1F
100
AcDbEntity
  8
作図線（太線）
  6
EXLTYPE3
 62
     3
100
AcDbLine
 10
922.208538
 20
891.3
 30
0.0
 11
742.408538
 21
891.3
 31
0.0
  0
LINE
  5
294
330
1F
100
AcDbEntity
  8
作図線（太線）
  6
EXLTYPE3
 62
     3
100
AcDbLine
 10
755.308538
 20
1066.3
 30
0.0
 11
910.408538
 21
1066.3
 31
0.0
  0
LINE
  5
295
330
1F
100
AcDbEntity
  8
作図線（太線）
  6
Continuous
 62
     7
100
AcDbLine
 10
733.7
 20
846.3
 30
0.0
 11
933.7
 21
846.3
 31
0.0
  0
LINE
  5
296
330
1F
100
AcDbEntity
  8
作図線（太線）
  6
Continuous
 62
     7
100
AcDbLine
 10
733.7
 20
846.3
 30
0.0
 11
733.7
 21
1086.3
 31
0.0
  0
LINE
  5
297
330
1F
100
AcDbEntity
  8
作図線（太線）
  6
Continuous
 62
     7
100
AcDbLine
 10
933.7
 20
846.3
 30
0.0
 11
933.7
 21
1086.3
 31
0.0
  0
LINE
  5
298
330
1F
100
AcDbEntity
  8
作図線（太線）
  6
EXLTYPE3
 62
     3
100
AcDbLine
 10
893.7
 20
859.0
 30
0.0
 11
893.7
 21
911.991685
 31
0.0
  0
LINE
  5
299
330
1F
100
AcDbEntity
  8
作図線（太線）
  6
EXLTYPE3
 62
     3
100
AcDbLine
 10
773.7
 20
862.6
 30
0.0
 11
773.7
 21
911.591685
 31
0.0
  0
LINE
  5
29A
330
1F
100
AcDbEntity
  8
作図線（太線）
  6
EXLTYPE3
 62
     3
100
AcDbLine
 10
833.7
 20
835.8
 30
0.0
 11
833.7
 21
1121.7
 31
0.0
  0
LWPOLYLINE
  5
29B
330
1F
100
AcDbEntity
  8
作図線（太線）
  6
Continuous
 62
     7
100
AcDbPolyline
 90
        5
 70
   128
 43
0.0
 10
781.7
 20
1057.3
 10
805.7
 20
1057.3
 10
805.7
 20
1075.3
 10
781.7
 20
1075.3
 10
781.7
 20
1057.3
  0
LWPOLYLINE
  5
2A2
330
1F
100
AcDbEntity
  8
作図線（太線）
  6
Continuous
 62
     7
100
AcDbPolyline
 90
        5
 70
   128
 43
0.0
 10
861.7
 20
1057.3
 10
885.7
 20
1057.3
 10
885.7
 20
1075.3
 10
861.7
 20
1075.3
 10
861.7
 20
1057.3
  0
LWPOLYLINE
  5
2A9
330
1F
100
AcDbEntity
  8
作図線（太線）
  6
Continuous
 62
     7
100
AcDbPolyline
 90
        5
 70
   128
 43
0.0
 10
777.7
 20
939.3
 10
889.7
 20
939.3
 10
889.7
 20
1023.3
 10
777.7
 20
1023.3
 10
777.7
 20
939.3
  0
LINE
  5
2B0
330
1F
100
AcDbEntity
  8
作図線（太線）
  6
EXLTYPE3
 62
     3
100
AcDbLine
 10
1524.332679
 20
1045.068764
 30
0.0
 11
1524.206403
 21
1045.068764
 31
0.0
  0
LINE
  5
2B1
330
1F
100
AcDbEntity
  8
作図線（太線）
  6
Continuous
 62
     7
100
AcDbLine
 10
1339.4
 20
1086.3
 30
0.0
 11
1539.4
 21
1086.3
 31
0.0
  0
LINE
  5
2B2
330
1F
100
AcDbEntity
  8
作図線（太線）
  6
Continuous
 62
     7
100
AcDbLine
 10
1515.4
 20
921.3
 30
0.0
 11
1363.4
 21
921.3
 31
0.0
  0
LINE
  5
2B3
330
1F
100
AcDbEntity
  8
作図線（太線）
  6
Continuous
 62
     7
100
AcDbLine
 10
1515.4
 20
1041.3
 30
0.0
 11
1363.4
 21
1041.3
 31
0.0
  0
LINE
  5
2B4
330
1F
100
AcDbEntity
  8
作図線（太線）
  6
EXLTYPE3
 62
     3
100
AcDbLine
 10
1479.4
 20
1046.3
 30
0.0
 11
1479.4
 21
1093.491685
 31
0.0
  0
LINE
  5
2B5
330
1F
100
AcDbEntity
  8
作図線（太線）
  6
EXLTYPE3
 62
     3
100
AcDbLine
 10
1399.4
 20
1050.891685
 30
0.0
 11
1399.4
 21
1095.291685
 31
0.0
  0
CIRCLE
  5
2B6
330
1F
100
AcDbEntity
  8
作図線（太線）
  6
Continuous
 62
     7
100
AcDbCircle
 10
1379.4
 20
891.3
 30
0.0
 40
11.0
  0
CIRCLE
  5
2B7
330
1F
100
AcDbEntity
  8
作図線（太線）
  6
Continuous
 62
     7
100
AcDbCircle
 10
1439.4
 20
891.3
 30
0.0
 40
11.0
  0
CIRCLE
  5
2B8
330
1F
100
AcDbEntity
  8
作図線（太線）
  6
Continuous
 62
     7
100
AcDbCircle
 10
1499.4
 20
891.3
 30
0.0
 40
11.0
  0
LINE
  5
2B9
330
1F
100
AcDbEntity
  8
作図線（太線）
  6
Continuous
 62
     7
100
AcDbLine
 10
1363.4
 20
1041.3
 30
0.0
 11
1363.4
 21
921.3
 31
0.0
  0
LINE
  5
2BA
330
1F
100
AcDbEntity
  8
作図線（太線）
  6
Continuous
 62
     7
100
AcDbLine
 10
1515.4
 20
1041.3
 30
0.0
 11
1515.4
 21
921.3
 31
0.0
  0
LINE
  5
2BB
330
1F
100
AcDbEntity
  8
作図線（太線）
  6
EXLTYPE3
 62
     3
100
AcDbLine
 10
1527.908538
 20
891.3
 30
0.0
 11
1348.108538
 21
891.3
 31
0.0
  0
LINE
  5
2BC
330
1F
100
AcDbEntity
  8
作図線（太線）
  6
EXLTYPE3
 62
     3
100
AcDbLine
 10
1361.008538
 20
1066.3
 30
0.0
 11
1516.108538
 21
1066.3
 31
0.0
  0
LINE
  5
2BD
330
1F
100
AcDbEntity
  8
作図線（太線）
  6
Continuous
 62
     7
100
AcDbLine
 10
1339.4
 20
846.3
 30
0.0
 11
1539.4
 21
846.3
 31
0.0
  0
LINE
  5
2BE
330
1F
100
AcDbEntity
  8
作図線（太線）
  6
Continuous
 62
     7
100
AcDbLine
 10
1339.4
 20
846.3
 30
0.0
 11
1339.4
 21
1086.3
 31
0.0
  0
LINE
  5
2BF
330
1F
100
AcDbEntity
  8
作図線（太線）
  6
Continuous
 62
     7
100
AcDbLine
 10
1539.4
 20
846.3
 30
0.0
 11
1539.4
 21
1086.3
 31
0.0
  0
LINE
  5
2C0
330
1F
100
AcDbEntity
  8
作図線（太線）
  6
EXLTYPE3
 62
     3
100
AcDbLine
 10
1499.4
 20
859.0
 30
0.0
 11
1499.4
 21
911.991685
 31
0.0
  0
LINE
  5
2C1
330
1F
100
AcDbEntity
  8
作図線（太線）
  6
EXLTYPE3
 62
     3
100
AcDbLine
 10
1379.4
 20
862.6
 30
0.0
 11
1379.4
 21
911.591685
 31
0.0
  0
LINE
  5
2C2
330
1F
100
AcDbEntity
  8
作図線（太線）
  6
EXLTYPE3
 62
     3
100
AcDbLine
 10
1439.4
 20
835.8
 30
0.0
 11
1439.4
 21
1121.7
 31
0.0
  0
LWPOLYLINE
  5
2C3
330
1F
100
AcDbEntity
  8
作図線（太線）
  6
Continuous
 62
     7
100
AcDbPolyline
 90
        5
 70
   128
 43
0.0
 10
1387.4
 20
1057.3
 10
1411.4
 20
1057.3
 10
1411.4
 20
1075.3
 10
1387.4
 20
1075.3
 10
1387.4
 20
1057.3
  0
LWPOLYLINE
  5
2CA
330
1F
100
AcDbEntity
  8
作図線（太線）
  6
Continuous
 62
     7
100
AcDbPolyline
 90
        5
 70
   128
 43
0.0
 10
1467.4
 20
1057.3
 10
1491.4
 20
1057.3
 10
1491.4
 20
1075.3
 10
1467.4
 20
1075.3
 10
1467.4
 20
1057.3
  0
LWPOLYLINE
  5
2D1
330
1F
100
AcDbEntity
  8
作図線（太線）
  6
Continuous
 62
     7
100
AcDbPolyline
 90
        5
 70
   128
 43
0.0
 10
1383.4
 20
939.3
 10
1495.4
 20
939.3
 10
1495.4
 20
1023.3
 10
1383.4
 20
1023.3
 10
1383.4
 20
939.3
  0
LINE
  5
2D8
330
1F
100
AcDbEntity
  8
作図線（太線）
  6
Continuous
 62
     7
100
AcDbLine
 10
1478.7
 20
846.3
 30
0.0
 11
1478.7
 21
822.3
 31
0.0
  0
LINE
  5
2D9
330
1F
100
AcDbEntity
  8
作図線（太線）
  6
Continuous
 62
     7
100
AcDbLine
 10
590.919238
 20
551.5
 30
0.0
 11
590.919238
 21
592.0
 31
0.0
  0
LINE
  5
2DA
330
1F
100
AcDbEntity
  8
作図線（太線）
  6
Continuous
 62
     7
100
AcDbLine
 10
642.880762
 20
551.5
 30
0.0
 11
642.880762
 21
592.0
 31
0.0
  0
ARC
  5
2DB
330
1F
100
AcDbEntity
  8
作図線（太線）
  6
Continuous
 62
     7
100
AcDbCircle
 10
616.9
 20
552.0
 30
0.0
 40
12.7
100
AcDbArc
 50
182.256322
 51
357.743678
  0
ARC
  5
2DC
330
1F
100
AcDbEntity
  8
作図線（太線）
  6
Continuous
 62
     7
100
AcDbCircle
 10
616.9
 20
552.0
 30
0.0
 40
12.7
100
AcDbArc
 50
2.256322
 51
177.743678
  0
LINE
  5
2DD
330
1F
100
AcDbEntity
  8
作図線（太線）
  6
Continuous
 62
     7
100
AcDbLine
 10
642.880762
 20
551.5
 30
0.0
 11
629.590154
 21
551.5
 31
0.0
  0
LINE
  5
2DE
330
1F
100
AcDbEntity
  8
作図線（太線）
  6
Continuous
 62
     7
100
AcDbLine
 10
604.209846
 20
551.5
 30
0.0
 11
590.919238
 21
551.5
 31
0.0
  0
LINE
  5
2DF
330
1F
100
AcDbEntity
  8
作図線（太線）
  6
Continuous
 62
     7
100
AcDbLine
 10
642.880762
 20
552.5
 30
0.0
 11
629.590154
 21
552.5
 31
0.0
  0
LINE
  5
2E0
330
1F
100
AcDbEntity
  8
作図線（太線）
  6
Continuous
 62
     7
100
AcDbLine
 10
604.209846
 20
552.5
 30
0.0
 11
590.919238
 21
552.5
 31
0.0
  0
LINE
  5
2E1
330
1F
100
AcDbEntity
  8
作図線（太線）
  6
Continuous
 62
     7
100
AcDbLine
 10
652.4
 20
526.0
 30
0.0
 11
652.4
 21
563.0
 31
0.0
  0
ARC
  5
2E2
330
1F
100
AcDbEntity
  8
作図線（太線）
  6
Continuous
 62
     7
100
AcDbCircle
 10
657.4
 20
563.0
 30
0.0
 40
5.0
100
AcDbArc
 50
90.0
 51
180.0
  0
LINE
  5
2E3
330
1F
100
AcDbEntity
  8
作図線（太線）
  6
Continuous
 62
     7
100
AcDbLine
 10
661.9
 20
568.0
 30
0.0
 11
657.4
 21
568.0
 31
0.0
  0
CIRCLE
  5
2E4
330
1F
100
AcDbEntity
  8
作図線（太線）
  6
Continuous
 62
     7
100
AcDbCircle
 10
661.4
 20
538.0
 30
0.0
 40
2.0
  0
LINE
  5
2E5
330
1F
100
AcDbEntity
  8
作図線（太線）
  6
Continuous
 62
     7
100
AcDbLine
 10
581.4
 20
526.0
 30
0.0
 11
581.4
 21
563.0
 31
0.0
  0
LINE
  5
2E6
330
1F
100
AcDbEntity
  8
作図線（太線）
  6
Continuous
 62
     7
100
AcDbLine
 10
581.4
 20
526.0
 30
0.0
 11
581.4
 21
563.0
 31
0.0
  0
ARC
  5
2E7
330
1F
100
AcDbEntity
  8
作図線（太線）
  6
Continuous
 62
     7
100
AcDbCircle
 10
576.4
 20
563.0
 30
0.0
 40
5.0
100
AcDbArc
 50
0.0
 51
90.0
  0
LINE
  5
2E8
330
1F
100
AcDbEntity
  8
作図線（太線）
  6
Continuous
 62
     7
100
AcDbLine
 10
571.9
 20
568.0
 30
0.0
 11
576.4
 21
568.0
 31
0.0
  0
CIRCLE
  5
2E9
330
1F
100
AcDbEntity
  8
作図線（太線）
  6
Continuous
 62
     7
100
AcDbCircle
 10
572.4
 20
538.0
 30
0.0
 40
2.0
  0
LINE
  5
2EA
330
1F
100
AcDbEntity
  8
作図線（太線）
  6
Continuous
 62
     7
100
AcDbLine
 10
661.9
 20
592.0
 30
0.0
 11
571.9
 21
592.0
 31
0.0
  0
CIRCLE
  5
2EB
330
1F
100
AcDbEntity
  8
作図線（太線）
  6
Continuous
 62
     3
100
AcDbCircle
 10
661.4
 20
538.0
 30
0.0
 40
2.5
  0
CIRCLE
  5
2EC
330
1F
100
AcDbEntity
  8
作図線（太線）
  6
Continuous
 62
     3
100
AcDbCircle
 10
572.4
 20
538.0
 30
0.0
 40
2.5
  0
LINE
  5
2ED
330
1F
100
AcDbEntity
  8
作図線（太線）
  6
EXLTYPE3
 62
     3
100
AcDbLine
 10
616.9
 20
592.0
 30
0.0
 11
616.9
 21
526.0
 31
0.0
  0
LINE
  5
2EE
330
1F
100
AcDbEntity
  8
作図線（太線）
  6
EXLTYPE3
 62
     3
100
AcDbLine
 10
616.9
 20
522.9
 30
0.0
 11
616.9
 21
607.0
 31
0.0
  0
LINE
  5
2EF
330
1F
100
AcDbEntity
  8
作図線（太線）
  6
EXLTYPE3
 62
     3
100
AcDbLine
 10
680.9
 20
538.0
 30
0.0
 11
547.9
 21
538.0
 31
0.0
  0
LINE
  5
2F0
330
1F
100
AcDbEntity
  8
作図線（太線）
  6
Continuous
 62
     7
100
AcDbLine
 10
652.4
 20
520.0
 30
0.0
 11
652.4
 21
556.0
 31
0.0
  0
ARC
  5
2F1
330
1F
100
AcDbEntity
  8
作図線（太線）
  6
Continuous
 62
     7
100
AcDbCircle
 10
680.4
 20
522.0
 30
0.0
 40
2.0
100
AcDbArc
 50
270.0
 51
0.0
  0
LINE
  5
2F2
330
1F
100
AcDbEntity
  8
作図線（太線）
  6
Continuous
 62
     7
100
AcDbLine
 10
652.4
 20
520.0
 30
0.0
 11
680.4
 21
520.0
 31
0.0
  0
ARC
  5
2F3
330
1F
100
AcDbEntity
  8
作図線（太線）
  6
Continuous
 62
     7
100
AcDbCircle
 10
680.4
 20
554.0
 30
0.0
 40
2.0
100
AcDbArc
 50
0.0
 51
90.0
  0
LINE
  5
2F4
330
1F
100
AcDbEntity
  8
作図線（太線）
  6
Continuous
 62
     7
100
AcDbLine
 10
652.4
 20
556.0
 30
0.0
 11
680.4
 21
556.0
 31
0.0
  0
CIRCLE
  5
2F5
330
1F
100
AcDbEntity
  8
作図線（太線）
  6
Continuous
 62
     7
100
AcDbCircle
 10
661.4
 20
538.0
 30
0.0
 40
2.5
  0
CIRCLE
  5
2F6
330
1F
100
AcDbEntity
  8
作図線（太線）
  6
Continuous
 62
     7
100
AcDbCircle
 10
661.4
 20
538.0
 30
0.0
 40
5.0
  0
LINE
  5
2F7
330
1F
100
AcDbEntity
  8
作図線（太線）
  6
EXLTYPE3
 62
     3
100
AcDbLine
 10
643.8
 20
538.0
 30
0.0
 11
692.2
 21
538.0
 31
0.0
  0
LINE
  5
2F8
330
1F
100
AcDbEntity
  8
作図線（太線）
  6
Continuous
 62
     7
100
AcDbLine
 10
581.4
 20
556.0
 30
0.0
 11
581.4
 21
520.0
 31
0.0
  0
ARC
  5
2F9
330
1F
100
AcDbEntity
  8
作図線（太線）
  6
Continuous
 62
     7
100
AcDbCircle
 10
553.4
 20
554.0
 30
0.0
 40
2.0
100
AcDbArc
 50
90.0
 51
180.0
  0
LINE
  5
2FA
330
1F
100
AcDbEntity
  8
作図線（太線）
  6
Continuous
 62
     7
100
AcDbLine
 10
581.4
 20
556.0
 30
0.0
 11
553.4
 21
556.0
 31
0.0
  0
ARC
  5
2FB
330
1F
100
AcDbEntity
  8
作図線（太線）
  6
Continuous
 62
     7
100
AcDbCircle
 10
553.4
 20
522.0
 30
0.0
 40
2.0
100
AcDbArc
 50
180.0
 51
270.0
  0
LINE
  5
2FC
330
1F
100
AcDbEntity
  8
作図線（太線）
  6
Continuous
 62
     7
100
AcDbLine
 10
581.4
 20
520.0
 30
0.0
 11
553.4
 21
520.0
 31
0.0
  0
CIRCLE
  5
2FD
330
1F
100
AcDbEntity
  8
作図線（太線）
  6
Continuous
 62
     7
100
AcDbCircle
 10
572.4
 20
538.0
 30
0.0
 40
2.5
  0
CIRCLE
  5
2FE
330
1F
100
AcDbEntity
  8
作図線（太線）
  6
Continuous
 62
     7
100
AcDbCircle
 10
572.4
 20
538.0
 30
0.0
 40
5.0
  0
LINE
  5
2FF
330
1F
100
AcDbEntity
  8
作図線（太線）
  6
EXLTYPE3
 62
     3
100
AcDbLine
 10
590.0
 20
538.0
 30
0.0
 11
541.6
 21
538.0
 31
0.0
  0
LINE
  5
300
330
1F
100
AcDbEntity
  8
作図線（太線）
  6
Continuous
 62
     7
100
AcDbLine
 10
571.9
 20
592.0
 30
0.0
 11
571.9
 21
556.0
 31
0.0
  0
LINE
  5
301
330
1F
100
AcDbEntity
  8
作図線（太線）
  6
Continuous
 62
     7
100
AcDbLine
 10
652.4
 20
526.0
 30
0.0
 11
581.4
 21
526.0
 31
0.0
  0
LINE
  5
302
330
1F
100
AcDbEntity
  8
作図線（太線）
  6
Continuous
 62
     7
100
AcDbLine
 10
661.9
 20
592.0
 30
0.0
 11
661.9
 21
556.0
 31
0.0
  0
LINE
  5
303
330
1F
100
AcDbEntity
  8
作図線（太線）
  6
EXLTYPE3
 62
     3
100
AcDbLine
 10
572.4
 20
546.8
 30
0.0
 11
572.4
 21
525.6
 31
0.0
  0
LINE
  5
304
330
1F
100
AcDbEntity
  8
作図線（太線）
  6
EXLTYPE3
 62
     3
100
AcDbLine
 10
661.4
 20
526.8
 30
0.0
 11
661.4
 21
550.05
 31
0.0
  0
LINE
  5
305
330
1F
100
AcDbEntity
  8
作図線（太線）
  6
EXLTYPE3
 62
     3
100
AcDbLine
 10
656.3
 20
552.0
 30
0.0
 11
577.05
 21
552.0
 31
0.0
  0
LINE
  5
306
330
1F
100
AcDbEntity
  8
作図線（太線）
  6
EXLTYPE3
 62
     3
100
AcDbLine
 10
616.9
 20
1017.3
 30
0.0
 11
616.9
 21
512.0
 31
0.0
  0
LINE
  5
307
330
1F
100
AcDbEntity
  8
作図線（太線）
  6
Continuous
 62
     7
100
AcDbLine
 10
551.4
 20
801.3
 30
0.0
 11
571.9
 21
801.3
 31
0.0
  0
LINE
  5
308
330
1F
100
AcDbEntity
  8
作図線（太線）
  6
Continuous
 62
     7
100
AcDbLine
 10
551.4
 20
801.3
 30
0.0
 11
551.4
 21
796.3
 31
0.0
  0
LINE
  5
309
330
1F
100
AcDbEntity
  8
作図線（太線）
  6
Continuous
 62
     7
100
AcDbLine
 10
551.4
 20
796.3
 30
0.0
 11
571.9
 21
796.3
 31
0.0
  0
LINE
  5
30A
330
1F
100
AcDbEntity
  8
作図線（太線）
  6
Continuous
 62
     3
100
AcDbLine
 10
551.4
 20
696.3
 30
0.0
 11
571.9
 21
696.3
 31
0.0
  0
LINE
  5
30B
330
1F
100
AcDbEntity
  8
作図線（太線）
  6
Continuous
 62
     3
100
AcDbLine
 10
551.4
 20
701.3
 30
0.0
 11
551.4
 21
696.3
 31
0.0
  0
LINE
  5
30C
330
1F
100
AcDbEntity
  8
作図線（太線）
  6
Continuous
 62
     3
100
AcDbLine
 10
551.4
 20
701.3
 30
0.0
 11
571.9
 21
701.3
 31
0.0
  0
LINE
  5
30D
330
1F
100
AcDbEntity
  8
作図線（太線）
  6
Continuous
 62
     7
100
AcDbLine
 10
551.4
 20
554.0
 30
0.0
 11
551.4
 21
522.0
 31
0.0
  0
LINE
  5
30E
330
1F
100
AcDbEntity
  8
作図線（太線）
  6
Continuous
 62
     7
100
AcDbLine
 10
682.4
 20
801.3
 30
0.0
 11
661.9
 21
801.3
 31
0.0
  0
LINE
  5
30F
330
1F
100
AcDbEntity
  8
作図線（太線）
  6
Continuous
 62
     7
100
AcDbLine
 10
682.4
 20
796.3
 30
0.0
 11
661.9
 21
796.3
 31
0.0
  0
LINE
  5
310
330
1F
100
AcDbEntity
  8
作図線（太線）
  6
Continuous
 62
     7
100
AcDbLine
 10
682.4
 20
801.3
 30
0.0
 11
682.4
 21
796.3
 31
0.0
  0
LINE
  5
311
330
1F
100
AcDbEntity
  8
作図線（太線）
  6
Continuous
 62
     3
100
AcDbLine
 10
682.4
 20
696.3
 30
0.0
 11
661.9
 21
696.3
 31
0.0
  0
LINE
  5
312
330
1F
100
AcDbEntity
  8
作図線（太線）
  6
Continuous
 62
     3
100
AcDbLine
 10
682.4
 20
701.3
 30
0.0
 11
661.9
 21
701.3
 31
0.0
  0
LINE
  5
313
330
1F
100
AcDbEntity
  8
作図線（太線）
  6
Continuous
 62
     3
100
AcDbLine
 10
682.4
 20
701.3
 30
0.0
 11
682.4
 21
696.3
 31
0.0
  0
LINE
  5
314
330
1F
100
AcDbEntity
  8
作図線（太線）
  6
Continuous
 62
     7
100
AcDbLine
 10
682.4
 20
522.0
 30
0.0
 11
682.4
 21
554.0
 31
0.0
  0
DIMENSION
  5
321
330
1F
100
AcDbEntity
  8
寸法線
  6
Continuous
 62
     1
100
AcDbDimension
  2
*D14
 10
1183.7
 20
1339.5
 30
0.0
 11
1324.0
 21
1352.0
 31
0.0
 70
    32
 71
     5
 42
-1.0
  3
Standard
100
AcDbAlignedDimension
 13
1478.7
 23
1086.3
 33
0.0
 14
1183.7
 24
1257.3
 34
0.0
100
AcDbRotatedDimension
1001
ACAD
1000
DSTYLE
1002
{
1070
   344
1005
30
1070
   343
1005
30
1070
    41
1040
15.0
1070
    42
1040
2.5
1070
    44
1040
2.5
1070
    73
1070
     0
1070
    74
1070
     0
1070
    75
1070
     0
1070
    76
1070
     0
1070
    77
1070
     1
1070
    78
1070
     8
1070
   140
1040
20.0
1070
   147
1040
2.5
1070
   173
1070
     1
1070
   176
1070
     1
1070
   177
1070
     1
1070
   178
1070
     1
1070
   271
1070
     2
1070
   279
1070
     2
1070
   280
1070
     0
1070
   340
1005
320
1002
}
  0
DIMENSION
  5
32C
330
1F
100
AcDbEntity
  8
寸法線
  6
Continuous
 62
     1
100
AcDbDimension
  2
*D15
 10
726.9
 20
1339.5
 30
0.0
 11
619.0
 21
1352.0
 31
0.0
 70
    32
 71
     5
 42
-1.0
  3
Standard
100
AcDbAlignedDimension
 13
506.9
 23
1257.3
 33
0.0
 14
726.9
 24
1257.3
 34
0.0
100
AcDbRotatedDimension
1001
ACAD
1000
DSTYLE
1002
{
1070
   344
1005
30
1070
   343
1005
30
1070
    41
1040
15.0
1070
    42
1040
2.5
1070
    44
1040
2.5
1070
    73
1070
     0
1070
    74
1070
     0
1070
    75
1070
     0
1070
    76
1070
     1
1070
    77
1070
     1
1070
    78
1070
     8
1070
   140
1040
20.0
1070
   147
1040
2.5
1070
   173
1070
     1
1070
   176
1070
     1
1070
   177
1070
     1
1070
   178
1070
     1
1070
   271
1070
     2
1070
   279
1070
     2
1070
   280
1070
     0
1070
   340
1005
320
1002
}
  0
DIMENSION
  5
338
330
1F
100
AcDbEntity
  8
寸法線
  6
Continuous
 62
     1
100
AcDbDimension
  2
*D16
 10
1645.0
 20
1270.3
 30
0.0
 11
1632.5
 21
1043.5
 31
0.0
 70
    32
 71
     5
 42
-1.0
  3
Standard
100
AcDbAlignedDimension
 13
1478.7
 23
822.3
 33
0.0
 14
1460.7
 24
1270.3
 34
0.0
 50
90.0
100
AcDbRotatedDimension
1001
ACAD
1000
DSTYLE
1002
{
1070
   344
1005
30
1070
   343
1005
30
1070
    41
1040
15.0
1070
    42
1040
2.5
1070
    44
1040
2.5
1070
    73
1070
     0
1070
    74
1070
     0
1070
    75
1070
     0
1070
    76
1070
     0
1070
    77
1070
     1
1070
    78
1070
     8
1070
   140
1040
20.0
1070
   147
1040
2.5
1070
   173
1070
     1
1070
   176
1070
     1
1070
   177
1070
     1
1070
   178
1070
     1
1070
   271
1070
     2
1070
   279
1070
     2
1070
   280
1070
     0
1070
   340
1005
320
1002
}
  0
DIMENSION
  5
344
330
1F
100
AcDbEntity
  8
寸法線
  6
Continuous
 62
     1
100
AcDbDimension
  2
*D17
 10
1587.5
 20
802.3
 30
0.0
 11
1575.0
 21
780.5
 31
0.0
 70
    32
 71
     5
 42
-1.0
  3
Standard
100
AcDbAlignedDimension
 13
1478.7
 23
822.3
 33
0.0
 14
1306.7
 24
802.3
 34
0.0
 50
90.0
100
AcDbRotatedDimension
1001
ACAD
1000
DSTYLE
1002
{
1070
   344
1005
30
1070
   343
1005
30
1070
    41
1040
15.0
1070
    42
1040
2.5
1070
    44
1040
2.5
1070
    73
1070
     0
1070
    74
1070
     0
1070
    75
1070
     0
1070
    76
1070
     0
1070
    77
1070
     1
1070
    78
1070
     8
1070
   140
1040
20.0
1070
   147
1040
2.5
1070
   173
1070
     1
1070
   176
1070
     1
1070
   177
1070
     1
1070
   178
1070
     1
1070
   271
1070
     2
1070
   279
1070
     2
1070
   280
1070
     0
1070
   340
1005
320
1002
}
  0
DIMENSION
  5
350
330
1F
100
AcDbEntity
  8
寸法線
  6
Continuous
 62
     1
100
AcDbDimension
  2
*D18
 10
821.5
 20
695.3
 30
0.0
 11
809.0
 21
747.5
 31
0.0
 70
    32
 71
     5
 42
-1.0
  3
Standard
100
AcDbAlignedDimension
 13
661.9
 23
795.3
 33
0.0
 14
661.9
 24
695.3
 34
0.0
 50
90.0
100
AcDbRotatedDimension
1001
ACAD
1000
DSTYLE
1002
{
1070
   344
1005
30
1070
   343
1005
30
1070
    41
1040
15.0
1070
    42
1040
2.5
1070
    44
1040
2.5
1070
    73
1070
     0
1070
    74
1070
     0
1070
    75
1070
     0
1070
    76
1070
     0
1070
    77
1070
     1
1070
    78
1070
     8
1070
   140
1040
20.0
1070
   147
1040
2.5
1070
   173
1070
     1
1070
   176
1070
     1
1070
   177
1070
     1
1070
   178
1070
     1
1070
   271
1070
     2
1070
   279
1070
     2
1070
   280
1070
     0
1070
   340
1005
320
1002
}
  0
DIMENSION
  5
35C
330
1F
100
AcDbEntity
  8
寸法線
  6
Continuous
 62
     1
100
AcDbDimension
  2
*D19
 10
1306.7
 20
666.5
 30
0.0
 11
1393.5
 21
679.0
 31
0.0
 70
    32
 71
     5
 42
-1.0
  3
Standard
100
AcDbAlignedDimension
 13
1478.7
 23
822.3
 33
0.0
 14
1306.7
 24
802.3
 34
0.0
100
AcDbRotatedDimension
1001
ACAD
1000
DSTYLE
1002
{
1070
   344
1005
30
1070
   343
1005
30
1070
    41
1040
15.0
1070
    42
1040
2.5
1070
    44
1040
2.5
1070
    73
1070
     0
1070
    74
1070
     0
1070
    75
1070
     0
1070
    76
1070
     0
1070
    77
1070
     1
1070
    78
1070
     8
1070
   140
1040
20.0
1070
   147
1040
2.5
1070
   173
1070
     1
1070
   176
1070
     1
1070
   177
1070
     1
1070
   178
1070
     1
1070
   271
1070
     2
1070
   279
1070
     2
1070
   280
1070
     0
1070
   340
1005
320
1002
}
  0
DIMENSION
  5
368
330
1F
100
AcDbEntity
  8
寸法線
  6
Continuous
 62
     1
100
AcDbDimension
  2
*D20
 10
1183.7
 20
666.5
 30
0.0
 11
1244.0
 21
679.0
 31
0.0
 70
    32
 71
     5
 42
-1.0
  3
Standard
100
AcDbAlignedDimension
 13
1306.7
 23
802.3
 33
0.0
 14
1183.7
 24
802.3
 34
0.0
100
AcDbRotatedDimension
1001
ACAD
1000
DSTYLE
1002
{
1070
   344
1005
30
1070
   343
1005
30
1070
    41
1040
15.0
1070
    42
1040
2.5
1070
    44
1040
2.5
1070
    73
1070
     0
1070
    74
1070
     0
1070
    75
1070
     0
1070
    76
1070
     0
1070
    77
1070
     1
1070
    78
1070
     8
1070
   140
1040
20.0
1070
   147
1040
2.5
1070
   173
1070
     1
1070
   176
1070
     1
1070
   177
1070
     1
1070
   178
1070
     1
1070
   271
1070
     2
1070
   279
1070
     2
1070
   280
1070
     0
1070
   340
1005
320
1002
}
  0
TEXT
  5
369
330
1F
100
AcDbEntity
  8
寸法線
  6
Continuous
 62
     1
100
AcDbText
 10
788.0
 20
701.5
 30
0.0
 40
20.0
  1
ストローク
 50
90.0
 41
0.661764705882353
  7
EXCADSTD
 72
     5
 11
788.0
 21
776.5
 31
0.0
100
AcDbText
  0
LINE
  5
36A
330
1F
100
AcDbEntity
  8
寸法線
  6
Continuous
 62
     1
100
AcDbLine
 10
726.9
 20
1259.8
 30
0.0
 11
726.9
 21
1342.0
 31
0.0
  0
DIMENSION
  5
376
330
1F
100
AcDbEntity
  8
寸法線
  6
Continuous
 62
     1
100
AcDbDimension
  2
*D21
 10
1585.0
 20
426.5
 30
0.0
 11
1572.5
 21
537.5
 31
0.0
 70
    32
 71
     5
 42
-1.0
  3
Standard
100
AcDbAlignedDimension
 13
1478.7
 23
646.5
 33
0.0
 14
1478.7
 24
426.5
 34
0.0
 50
90.0
100
AcDbRotatedDimension
1001
ACAD
1000
DSTYLE
1002
{
1070
   344
1005
30
1070
   343
1005
30
1070
    41
1040
15.0
1070
    42
1040
2.5
1070
    44
1040
2.5
1070
    73
1070
     0
1070
    74
1070
     0
1070
    75
1070
     0
1070
    76
1070
     0
1070
    77
1070
     1
1070
    78
1070
     8
1070
   140
1040
20.0
1070
   147
1040
2.5
1070
   173
1070
     1
1070
   176
1070
     1
1070
   177
1070
     1
1070
   178
1070
     1
1070
   271
1070
     2
1070
   279
1070
     2
1070
   280
1070
     0
1070
   340
1005
320
1002
}
  0
DIMENSION
  5
382
330
1F
100
AcDbEntity
  8
寸法線
  6
Continuous
 62
     1
100
AcDbDimension
  2
*D22
 10
1546.5
 20
606.5
 30
0.0
 11
1534.0
 21
536.0
 31
0.0
 70
    32
 71
     5
 42
-1.0
  3
Standard
100
AcDbAlignedDimension
 13
1472.1
 23
466.5
 33
0.0
 14
1472.1
 24
606.5
 34
0.0
 50
90.0
100
AcDbRotatedDimension
1001
ACAD
1000
DSTYLE
1002
{
1070
   344
1005
30
1070
   343
1005
30
1070
    41
1040
15.0
1070
    42
1040
2.5
1070
    44
1040
2.5
1070
    73
1070
     0
1070
    74
1070
     0
1070
    75
1070
     0
1070
    76
1070
     0
1070
    77
1070
     1
1070
    78
1070
     8
1070
   140
1040
20.0
1070
   147
1040
2.5
1070
   173
1070
     1
1070
   176
1070
     1
1070
   177
1070
     1
1070
   178
1070
     1
1070
   271
1070
     2
1070
   279
1070
     2
1070
   280
1070
     0
1070
   340
1005
320
1002
}
  0
DIMENSION
  5
38D
330
1F
100
AcDbEntity
  8
寸法線
  6
Continuous
 62
     1
100
AcDbDimension
  2
*D23
 10
1388.7
 20
389.5
 30
0.0
 11
1355.2
 21
402.0
 31
0.0
 70
    32
 71
     5
 42
-1.0
  3
Standard
100
AcDbAlignedDimension
 13
1321.7
 23
450.5
 33
0.0
 14
1388.7
 24
450.0
 34
0.0
100
AcDbRotatedDimension
1001
ACAD
1000
DSTYLE
1002
{
1070
   344
1005
30
1070
   343
1005
30
1070
    41
1040
15.0
1070
    42
1040
2.5
1070
    44
1040
2.5
1070
    73
1070
     0
1070
    74
1070
     0
1070
    75
1070
     1
1070
    76
1070
     0
1070
    77
1070
     1
1070
    78
1070
     8
1070
   140
1040
20.0
1070
   147
1040
2.5
1070
   173
1070
     1
1070
   176
1070
     1
1070
   177
1070
     1
1070
   178
1070
     1
1070
   271
1070
     2
1070
   279
1070
     2
1070
   280
1070
     0
1070
   340
1005
320
1002
}
  0
DIMENSION
  5
398
330
1F
100
AcDbEntity
  8
寸法線
  6
Continuous
 62
     1
100
AcDbDimension
  2
*D24
 10
1448.7
 20
389.5
 30
0.0
 11
1418.7
 21
402.0
 31
0.0
 70
    32
 71
     5
 42
-1.0
  3
Standard
100
AcDbAlignedDimension
 13
1388.7
 23
450.0
 33
0.0
 14
1448.7
 24
450.0
 34
0.0
100
AcDbRotatedDimension
1001
ACAD
1000
DSTYLE
1002
{
1070
   344
1005
30
1070
   343
1005
30
1070
    41
1040
15.0
1070
    42
1040
2.5
1070
    44
1040
2.5
1070
    73
1070
     0
1070
    74
1070
     0
1070
    75
1070
     1
1070
    76
1070
     0
1070
    77
1070
     1
1070
    78
1070
     8
1070
   140
1040
20.0
1070
   147
1040
2.5
1070
   173
1070
     1
1070
   176
1070
     1
1070
   177
1070
     1
1070
   178
1070
     1
1070
   271
1070
     2
1070
   279
1070
     2
1070
   280
1070
     0
1070
   340
1005
320
1002
}
  0
DIMENSION
  5
3A2
330
1F
100
AcDbEntity
  8
寸法線
  6
Continuous
 62
     1
100
AcDbDimension
  2
*D25
 10
1321.7
 20
389.5
 30
0.0
 11
1281.0
 21
402.0
 31
0.0
 70
    32
 71
     5
 42
-1.0
  3
Standard
100
AcDbAlignedDimension
 13
1306.7
 23
426.5
 33
0.0
 14
1321.7
 24
450.5
 34
0.0
100
AcDbRotatedDimension
1001
ACAD
1000
DSTYLE
1002
{
1070
   344
1005
35
1070
   343
1005
30
1070
    41
1040
15.0
1070
    42
1040
2.5
1070
    44
1040
2.5
1070
    73
1070
     0
1070
    74
1070
     0
1070
    75
1070
     0
1070
    76
1070
     0
1070
    77
1070
     1
1070
    78
1070
     8
1070
   140
1040
20.0
1070
   147
1040
2.5
1070
   173
1070
     1
1070
   176
1070
     1
1070
   177
1070
     1
1070
   178
1070
     1
1070
   271
1070
     2
1070
   279
1070
     2
1070
   280
1070
     0
1070
   340
1005
320
1002
}
  0
TEXT
  5
3A3
330
1F
100
AcDbEntity
  8
寸法線
  6
Continuous
 62
     1
100
AcDbText
 10
1026.25
 20
527.5
 30
0.0
 40
20.0
  1
６－Ｍ１０深２０（取付穴）
 41
0.6662870159453304
  7
EXCADSTD
 72
     5
 11
1221.25
 21
527.5
 31
0.0
100
AcDbText
  0
LEADER
  5
3A4
330
1F
100
AcDbEntity
  8
寸法線
  6
Continuous
 62
     1
100
AcDbLeader
  3
Standard
 76
     3
 10
1317.893348
 20
603.25818
 30
0.0
 10
1226.0
 20
525.0
 30
0.0
 10
1021.5
 20
525.0
 30
0.0
1001
ACAD
1000
DSTYLE
1002
{
1070
    41
1040
15.0
1070
     5
1000
_EX_NORM
1070
     6
1000
_EX_NORM
1070
     7
1000
_EX_NORM
1070
   341
1005
30
1002
}
  0
DIMENSION
  5
3B0
330
1F
100
AcDbEntity
  8
寸法線
  6
Continuous
 62
     1
100
AcDbDimension
  2
*D26
 10
933.7
 20
1339.5
 30
0.0
 11
829.5
 21
1352.0
 31
0.0
 70
    32
  1
（207）
 71
     5
 42
-1.0
  3
Standard
100
AcDbAlignedDimension
 13
726.9
 23
1257.3
 33
0.0
 14
933.7
 24
1086.3
 34
0.0
100
AcDbRotatedDimension
1001
ACAD
1000
DSTYLE
1002
{
1070
   344
1005
30
1070
   343
1005
30
1070
    41
1040
15.0
1070
    42
1040
2.5
1070
    44
1040
2.5
1070
    73
1070
     0
1070
    74
1070
     0
1070
    75
1070
     0
1070
    76
1070
     0
1070
    77
1070
     1
1070
    78
1070
     8
1070
   140
1040
20.0
1070
   147
1040
2.5
1070
   173
1070
     1
1070
   176
1070
     1
1070
   177
1070
     1
1070
   178
1070
     1
1070
   271
1070
     2
1070
   279
1070
     2
1070
   280
1070
     0
1070
   340
1005
320
1002
}
  0
DIMENSION
  5
3BC
330
1F
100
AcDbEntity
  8
寸法線
  6
Continuous
 62
     1
100
AcDbDimension
  2
*D27
 10
1008.0
 20
846.3
 30
0.0
 11
995.5
 21
975.5
 31
0.0
 70
    32
 71
     5
 42
-1.0
  3
Standard
100
AcDbAlignedDimension
 13
933.7
 23
1086.3
 33
0.0
 14
933.7
 24
846.3
 34
0.0
 50
90.0
100
AcDbRotatedDimension
1001
ACAD
1000
DSTYLE
1002
{
1070
   344
1005
30
1070
   343
1005
30
1070
    41
1040
15.0
1070
    42
1040
2.5
1070
    44
1040
2.5
1070
    73
1070
     0
1070
    74
1070
     0
1070
    75
1070
     0
1070
    76
1070
     0
1070
    77
1070
     1
1070
    78
1070
     8
1070
   140
1040
20.0
1070
   147
1040
2.5
1070
   173
1070
     1
1070
   176
1070
     1
1070
   177
1070
     1
1070
   178
1070
     1
1070
   271
1070
     2
1070
   279
1070
     2
1070
   280
1070
     0
1070
   340
1005
320
1002
}
  0
DIMENSION
  5
3C8
330
1F
100
AcDbEntity
  8
寸法線
  6
Continuous
 62
     1
100
AcDbDimension
  2
*D28
 10
1008.0
 20
846.3
 30
0.0
 11
995.5
 21
826.0
 31
0.0
 70
    32
 71
     5
 42
-1.0
  3
Standard
100
AcDbAlignedDimension
 13
726.9
 23
802.3
 33
0.0
 14
933.7
 24
846.3
 34
0.0
 50
90.0
100
AcDbRotatedDimension
1001
ACAD
1000
DSTYLE
1002
{
1070
   344
1005
30
1070
   343
1005
30
1070
    41
1040
15.0
1070
    42
1040
2.5
1070
    44
1040
2.5
1070
    73
1070
     0
1070
    74
1070
     0
1070
    75
1070
     0
1070
    76
1070
     0
1070
    77
1070
     1
1070
    78
1070
     8
1070
   140
1040
20.0
1070
   147
1040
2.5
1070
   173
1070
     1
1070
   176
1070
     1
1070
   177
1070
     1
1070
   178
1070
     1
1070
   271
1070
     2
1070
   279
1070
     2
1070
   280
1070
     0
1070
   340
1005
320
1002
}
  0
DIMENSION
  5
3D4
330
1F
100
AcDbEntity
  8
寸法線
  6
Continuous
 62
     1
100
AcDbDimension
  2
*D29
 10
1539.4
 20
1171.0
 30
0.0
 11
1508.7
 21
1183.5
 31
0.0
 70
    32
  1
（61）
 71
     5
 42
-1.0
  3
Standard
100
AcDbAlignedDimension
 13
1478.7
 23
1086.3
 33
0.0
 14
1539.4
 24
1086.3
 34
0.0
100
AcDbRotatedDimension
1001
ACAD
1000
DSTYLE
1002
{
1070
   344
1005
30
1070
   343
1005
30
1070
    41
1040
15.0
1070
    42
1040
2.5
1070
    44
1040
2.5
1070
    73
1070
     0
1070
    74
1070
     0
1070
    75
1070
     0
1070
    76
1070
     0
1070
    77
1070
     1
1070
    78
1070
     8
1070
   140
1040
20.0
1070
   147
1040
2.5
1070
   173
1070
     1
1070
   176
1070
     1
1070
   177
1070
     1
1070
   178
1070
     1
1070
   271
1070
     2
1070
   279
1070
     2
1070
   280
1070
     0
1070
   340
1005
320
1002
}
  0
DIMENSION
  5
3E0
330
1F
100
AcDbEntity
  8
寸法線
  6
Continuous
 62
     1
100
AcDbDimension
  2
*D30
 10
571.9
 20
624.0
 30
0.0
 11
617.0
 21
636.5
 31
0.0
 70
    32
 71
     5
 42
-1.0
  3
Standard
100
AcDbAlignedDimension
 13
661.9
 23
592.0
 33
0.0
 14
571.9
 24
592.0
 34
0.0
100
AcDbRotatedDimension
1001
ACAD
1000
DSTYLE
1002
{
1070
   344
1005
30
1070
   343
1005
30
1070
    41
1040
15.0
1070
    42
1040
2.5
1070
    44
1040
2.5
1070
    73
1070
     0
1070
    74
1070
     0
1070
    75
1070
     0
1070
    76
1070
     0
1070
    77
1070
     1
1070
    78
1070
     8
1070
   140
1040
20.0
1070
   147
1040
2.5
1070
   173
1070
     1
1070
   176
1070
     1
1070
   177
1070
     1
1070
   178
1070
     1
1070
   271
1070
     2
1070
   279
1070
     2
1070
   280
1070
     0
1070
   340
1005
320
1002
}
  0
DIMENSION
  5
3EC
330
1F
100
AcDbEntity
  8
寸法線
  6
Continuous
 62
     1
100
AcDbDimension
  2
*D31
 10
551.4
 20
419.0
 30
0.0
 11
622.5
 21
431.5
 31
0.0
 70
    32
 71
     5
 42
-1.0
  3
Standard
100
AcDbAlignedDimension
 13
682.4
 23
522.0
 33
0.0
 14
551.4
 24
522.0
 34
0.0
100
AcDbRotatedDimension
1001
ACAD
1000
DSTYLE
1002
{
1070
   344
1005
30
1070
   343
1005
30
1070
    41
1040
15.0
1070
    42
1040
2.5
1070
    44
1040
2.5
1070
    73
1070
     0
1070
    74
1070
     0
1070
    75
1070
     0
1070
    76
1070
     0
1070
    77
1070
     1
1070
    78
1070
     8
1070
   140
1040
20.0
1070
   147
1040
2.5
1070
   173
1070
     1
1070
   176
1070
     1
1070
   177
1070
     1
1070
   178
1070
     1
1070
   271
1070
     2
1070
   279
1070
     2
1070
   280
1070
     0
1070
   340
1005
320
1002
}
  0
DIMENSION
  5
3F8
330
1F
100
AcDbEntity
  8
寸法線
  6
Continuous
 62
     1
100
AcDbDimension
  2
*D32
 10
661.4
 20
453.0
 30
0.0
 11
618.5
 21
465.5
 31
0.0
 70
    32
 71
     5
 42
-1.0
  3
Standard
100
AcDbAlignedDimension
 13
572.4
 23
525.6
 33
0.0
 14
661.4
 24
526.8
 34
0.0
100
AcDbRotatedDimension
1001
ACAD
1000
DSTYLE
1002
{
1070
   344
1005
30
1070
   343
1005
30
1070
    41
1040
15.0
1070
    42
1040
2.5
1070
    44
1040
2.5
1070
    73
1070
     0
1070
    74
1070
     0
1070
    75
1070
     0
1070
    76
1070
     0
1070
    77
1070
     1
1070
    78
1070
     8
1070
   140
1040
20.0
1070
   147
1040
2.5
1070
   173
1070
     1
1070
   176
1070
     1
1070
   177
1070
     1
1070
   178
1070
     1
1070
   271
1070
     2
1070
   279
1070
     2
1070
   280
1070
     0
1070
   340
1005
320
1002
}
  0
DIMENSION
  5
404
330
1F
100
AcDbEntity
  8
寸法線
  6
Continuous
 62
     1
100
AcDbDimension
  2
*D33
 10
581.4
 20
485.5
 30
0.0
 11
617.5
 21
498.0
 31
0.0
 70
    32
 71
     5
 42
-1.0
  3
Standard
100
AcDbAlignedDimension
 13
652.4
 23
526.0
 33
0.0
 14
581.4
 24
526.0
 34
0.0
100
AcDbRotatedDimension
1001
ACAD
1000
DSTYLE
1002
{
1070
   344
1005
30
1070
   343
1005
30
1070
    41
1040
15.0
1070
    42
1040
2.5
1070
    44
1040
2.5
1070
    73
1070
     0
1070
    74
1070
     0
1070
    75
1070
     0
1070
    76
1070
     0
1070
    77
1070
     1
1070
    78
1070
     8
1070
   140
1040
20.0
1070
   147
1040
2.5
1070
   173
1070
     1
1070
   176
1070
     1
1070
   177
1070
     1
1070
   178
1070
     1
1070
   271
1070
     2
1070
   279
1070
     2
1070
   280
1070
     0
1070
   340
1005
320
1002
}
  0
DIMENSION
  5
410
330
1F
100
AcDbEntity
  8
寸法線
  6
Continuous
 62
     1
100
AcDbDimension
  2
*D34
 10
785.5
 20
592.0
 30
0.0
 11
773.0
 21
557.0
 31
0.0
 70
    32
 71
     5
 42
-1.0
  3
Standard
100
AcDbAlignedDimension
 13
680.4
 23
520.0
 33
0.0
 14
661.9
 24
592.0
 34
0.0
 50
90.0
100
AcDbRotatedDimension
1001
ACAD
1000
DSTYLE
1002
{
1070
   344
1005
30
1070
   343
1005
30
1070
    41
1040
15.0
1070
    42
1040
2.5
1070
    44
1040
2.5
1070
    73
1070
     0
1070
    74
1070
     0
1070
    75
1070
     0
1070
    76
1070
     0
1070
    77
1070
     1
1070
    78
1070
     8
1070
   140
1040
20.0
1070
   147
1040
2.5
1070
   173
1070
     1
1070
   176
1070
     1
1070
   177
1070
     1
1070
   178
1070
     1
1070
   271
1070
     2
1070
   279
1070
     2
1070
   280
1070
     0
1070
   340
1005
320
1002
}
  0
TEXT
  5
411
330
1F
100
AcDbEntity
  8
寸法線
  6
Continuous
 62
     1
100
AcDbText
 10
722.0
 20
605.0
 30
0.0
 40
20.0
  1
φ２５．４深さ４０
 41
0.6511254019292604
  7
EXCADSTD
 72
     5
 11
857.0
 21
605.0
 31
0.0
100
AcDbText
  0
TEXT
  5
412
330
1F
100
AcDbEntity
  8
寸法線
  6
Continuous
 62
     1
100
AcDbText
 10
752.5
 20
630.5
 30
0.0
 40
20.0
  1
シャンク穴
 41
0.6502890173410405
  7
EXCADSTD
 72
     5
 11
827.5
 21
630.5
 31
0.0
100
AcDbText
  0
LEADER
  5
413
330
1F
100
AcDbEntity
  8
寸法線
  6
Continuous
 62
     1
100
AcDbLeader
  3
Standard
 76
     3
 10
627.140086
 20
559.512032
 30
0.0
 10
720.5
 20
628.0
 30
0.0
 10
859.5
 20
628.0
 30
0.0
1001
ACAD
1000
DSTYLE
1002
{
1070
    41
1040
15.0
1070
     5
1000
_EX_NORM
1070
     6
1000
_EX_NORM
1070
     7
1000
_EX_NORM
1070
   341
1005
30
1002
}
  0
DIMENSION
  5
41F
330
1F
100
AcDbEntity
  8
寸法線
  6
Continuous
 62
     1
100
AcDbDimension
  2
*D35
 10
735.0
 20
552.0
 30
0.0
 11
722.5
 21
573.5
 31
0.0
 70
    32
 71
     5
 42
-1.0
  3
Standard
100
AcDbAlignedDimension
 13
661.9
 23
592.0
 33
0.0
 14
656.3
 24
552.0
 34
0.0
 50
90.0
100
AcDbRotatedDimension
1001
ACAD
1000
DSTYLE
1002
{
1070
   344
1005
30
1070
   343
1005
30
1070
    41
1040
15.0
1070
    42
1040
2.5
1070
    44
1040
2.5
1070
    73
1070
     0
1070
    74
1070
     0
1070
    75
1070
     0
1070
    76
1070
     0
1070
    77
1070
     1
1070
    78
1070
     8
1070
   140
1040
20.0
1070
   147
1040
2.5
1070
   173
1070
     1
1070
   176
1070
     1
1070
   177
1070
     1
1070
   178
1070
     1
1070
   271
1070
     2
1070
   279
1070
     2
1070
   280
1070
     0
1070
   340
1005
320
1002
}
  0
DIMENSION
  5
42A
330
1F
100
AcDbEntity
  8
寸法線
  6
Continuous
 62
     1
100
AcDbDimension
  2
*D36
 10
726.9
 20
1188.5
 30
0.0
 11
796.5
 21
1201.0
 31
0.0
 70
    32
  1
（127）
 71
     5
 42
-1.0
  3
Standard
100
AcDbAlignedDimension
 13
853.7
 23
1086.3
 33
0.0
 14
726.9
 24
1188.5
 34
0.0
100
AcDbRotatedDimension
1001
ACAD
1000
DSTYLE
1002
{
1070
   344
1005
30
1070
   343
1005
30
1070
    41
1040
15.0
1070
    42
1040
2.5
1070
    44
1040
2.5
1070
    73
1070
     0
1070
    74
1070
     0
1070
    75
1070
     0
1070
    76
1070
     1
1070
    77
1070
     1
1070
    78
1070
     8
1070
   140
1040
20.0
1070
   147
1040
2.5
1070
   173
1070
     1
1070
   176
1070
     1
1070
   177
1070
     1
1070
   178
1070
     1
1070
   271
1070
     2
1070
   279
1070
     2
1070
   280
1070
     0
1070
   340
1005
320
1002
}
  0
TEXT
  5
42C
330
1F
100
AcDbEntity
  8
文字
  6
Continuous
 62
     3
100
AcDbText
 10
1747.5
 20
200.5
 30
0.0
 40
18.75
  1
ＨＭＳ－１０００
 41
0.8
  7
EXCADTTF1
 72
     5
 11
1907.5
 21
200.5
 31
0.0
100
AcDbText
  0
TEXT
  5
42D
330
1F
100
AcDbEntity
  8
文字
  6
Continuous
 62
     3
100
AcDbText
 10
1774.0
 20
133.0
 30
0.0
 40
18.75
  1
外観寸法図
 41
0.8
  7
EXCADTTF1
 72
     5
 11
1874.0
 21
133.0
 31
0.0
100
AcDbText
  0
TEXT
  5
42E
330
1F
100
AcDbEntity
  8
文字
  6
Continuous
 62
     3
100
AcDbText
 10
1524.5
 20
259.0
 30
0.0
 40
18.75
  1
１／５
 41
0.8
  7
EXCADTTF1
 72
     5
 11
1584.5
 21
259.0
 31
0.0
100
AcDbText
  0
TEXT
  5
42F
330
1F
100
AcDbEntity
  8
文字
  6
Continuous
 62
     3
100
AcDbText
 10
1397.0
 20
58.0
 30
0.0
 40
18.75
  1
ミズノ
 41
0.8
  7
EXCADTTF1
 72
     5
 11
1457.0
 21
58.0
 31
0.0
100
AcDbText
  0
TEXT
  5
430
330
1F
100
AcDbEntity
  8
文字
  6
Continuous
 62
     3
100
AcDbText
 10
1508.0
 20
58.0
 30
0.0
 40
18.75
  1
2010.10.13
 41
0.8
  7
EXCADTTF1
 72
     5
 11
1608.0
 21
58.0
 31
0.0
100
AcDbText
  0
TEXT
  5
431
330
1F
100
AcDbEntity
  8
文字
  6
Continuous
 62
     3
100
AcDbText
 10
713.5
 20
454.5
 30
0.0
 40
18.75
  1
スライド下部詳細
 41
0.8
  7
EXCADTTF1
 72
     5
 11
873.5
 21
454.5
 31
0.0
100
AcDbText
  0
LINE
  5
432
330
1F
100
AcDbEntity
  8
文字
  6
Continuous
 62
   101
100
AcDbLine
 10
713.5
 20
454.5
 30
0.0
 11
877.5
 21
454.5
 31
0.0
  0
LINE
  5
433
330
1F
100
AcDbEntity
  8
図面枠
  6
Continuous
 62
     2
100
AcDbLine
 10
5.5
 20
48.0
 30
0.0
 11
5.5
 21
1433.0
 31
0.0
  0
LINE
  5
434
330
1F
100
AcDbEntity
  8
図面枠
  6
Continuous
 62
     2
100
AcDbLine
 10
1965.5
 20
48.0
 30
0.0
 11
1650.5
 21
48.0
 31
0.0
  0
LINE
  5
435
330
1F
100
AcDbEntity
  8
図面枠
  6
Continuous
 62
     2
100
AcDbLine
 10
1615.5
 20
308.0
 30
0.0
 11
1615.5
 21
48.0
 31
0.0
  0
LINE
  5
436
330
1F
100
AcDbEntity
  8
図面枠
  6
Continuous
 62
     2
100
AcDbLine
 10
2015.5
 20
48.0
 30
0.0
 11
2015.5
 21
1433.0
 31
0.0
  0
LINE
  5
437
330
1F
100
AcDbEntity
  8
図面枠
  6
Continuous
 62
     2
100
AcDbLine
 10
5.5
 20
48.0
 30
0.0
 11
2015.5
 21
48.0
 31
0.0
  0
LINE
  5
438
330
1F
100
AcDbEntity
  8
図面枠
  6
Continuous
 62
     2
100
AcDbLine
 10
2015.5
 20
1433.0
 30
0.0
 11
5.5
 21
1433.0
 31
0.0
  0
LINE
  5
439
330
1F
100
AcDbEntity
  8
図面枠
  6
Continuous
 62
     2
100
AcDbLine
 10
1615.5
 20
183.0
 30
0.0
 11
2015.5
 21
183.0
 31
0.0
  0
LINE
  5
43A
330
1F
100
AcDbEntity
  8
図面枠
  6
Continuous
 62
     2
100
AcDbLine
 10
1240.5
 20
317.0
 30
0.0
 11
2015.5
 21
317.0
 31
0.0
  0
LINE
  5
43B
330
1F
100
AcDbEntity
  8
図面枠
  6
Continuous
 62
     2
100
AcDbLine
 10
1650.5
 20
48.0
 30
0.0
 11
1650.5
 21
317.0
 31
0.0
  0
LINE
  5
43C
330
1F
100
AcDbEntity
  8
図面枠
  6
Continuous
 62
     2
100
AcDbLine
 10
1615.5
 20
317.0
 30
0.0
 11
1615.5
 21
48.0
 31
0.0
  0
LINE
  5
43D
330
1F
100
AcDbEntity
  8
図面枠
  6
Continuous
 62
     2
100
AcDbLine
 10
1650.5
 20
249.0
 30
0.0
 11
2015.5
 21
249.0
 31
0.0
  0
LINE
  5
43E
330
1F
100
AcDbEntity
  8
図面枠
  6
Continuous
 62
   131
100
AcDbLine
 10
2015.5
 20
65.5
 30
0.0
 11
1650.5
 21
65.5
 31
0.0
  0
LINE
  5
43F
330
1F
100
AcDbEntity
  8
図面枠
  6
Continuous
 62
   131
100
AcDbLine
 10
2015.5
 20
133.0
 30
0.0
 11
1650.5
 21
133.0
 31
0.0
  0
LINE
  5
440
330
1F
100
AcDbEntity
  8
図面枠
  6
Continuous
 62
   131
100
AcDbLine
 10
2015.5
 20
200.5
 30
0.0
 11
1650.5
 21
200.5
 31
0.0
  0
LINE
  5
441
330
1F
100
AcDbEntity
  8
図面枠
  6
Continuous
 62
   131
100
AcDbLine
 10
2015.5
 20
266.5
 30
0.0
 11
1650.5
 21
266.5
 31
0.0
  0
LINE
  5
442
330
1F
100
AcDbEntity
  8
図面枠
  6
Continuous
 62
     2
100
AcDbLine
 10
205.5
 20
173.0
 30
0.0
 11
205.5
 21
48.0
 31
0.0
  0
LINE
  5
443
330
1F
100
AcDbEntity
  8
図面枠
  6
Continuous
 62
     2
100
AcDbLine
 10
1489.25
 20
317.0
 30
0.0
 11
1489.25
 21
48.0
 31
0.0
  0
LINE
  5
444
330
1F
100
AcDbEntity
  8
図面枠
  6
Continuous
 62
     2
100
AcDbLine
 10
1615.5
 20
294.0
 30
0.0
 11
1489.25
 21
294.0
 31
0.0
  0
LINE
  5
445
330
1F
100
AcDbEntity
  8
図面枠
  6
Continuous
 62
   131
100
AcDbLine
 10
1615.5
 20
259.0
 30
0.0
 11
1489.25
 21
259.0
 31
0.0
  0
LWPOLYLINE
  5
446
330
1F
100
AcDbEntity
  8
図面枠
  6
Continuous
 62
     2
100
AcDbPolyline
 90
        2
 70
   128
 43
0.0
 10
1363.0
 20
48.0
 10
1363.0
 20
249.0
  0
LINE
  5
44A
330
1F
100
AcDbEntity
  8
図面枠
  6
Continuous
 62
   131
100
AcDbLine
 10
1615.5
 20
125.5
 30
0.0
 11
1363.0
 21
125.5
 31
0.0
  0
LINE
  5
44B
330
1F
100
AcDbEntity
  8
図面枠
  6
Continuous
 62
     2
100
AcDbLine
 10
1615.5
 20
163.0
 30
0.0
 11
1363.0
 21
163.0
 31
0.0
  0
LINE
  5
44C
330
1F
100
AcDbEntity
  8
図面枠
  6
Continuous
 62
   131
100
AcDbLine
 10
1615.5
 20
193.0
 30
0.0
 11
1363.0
 21
193.0
 31
0.0
  0
LINE
  5
44D
330
1F
100
AcDbEntity
  8
図面枠
  6
Continuous
 62
     2
100
AcDbLine
 10
1615.5
 20
228.0
 30
0.0
 11
1363.0
 21
228.0
 31
0.0
  0
LINE
  5
44E
330
1F
100
AcDbEntity
  8
図面枠
  6
Continuous
 62
     2
100
AcDbLine
 10
1235.5
 20
115.5
 30
0.0
 11
1235.5
 21
48.0
 31
0.0
  0
LWPOLYLINE
  5
44F
330
1F
100
AcDbEntity
  8
図面枠
  6
Continuous
 62
     2
100
AcDbPolyline
 90
        3
 70
   128
 43
0.0
 10
2014.5
 20
353.0
 10
1109.5
 20
353.0
 10
1109.5
 20
53.0
  0
LINE
  5
454
330
1F
100
AcDbEntity
  8
図面枠
  6
Continuous
 62
     2
100
AcDbLine
 10
1109.5
 20
48.0
 30
0.0
 11
1109.5
 21
173.0
 31
0.0
  0
LINE
  5
455
330
1F
100
AcDbEntity
  8
図面枠
  6
Continuous
 62
     2
100
AcDbLine
 10
1109.5
 20
317.0
 30
0.0
 11
1965.5
 21
317.0
 31
0.0
  0
LINE
  5
456
330
1F
100
AcDbEntity
  8
図面枠
  6
Continuous
 62
     2
100
AcDbLine
 10
1109.5
 20
249.0
 30
0.0
 11
1615.5
 21
249.0
 31
0.0
  0
LINE
  5
457
330
1F
100
AcDbEntity
  8
図面枠
  6
Continuous
 62
     2
100
AcDbLine
 10
205.5
 20
173.0
 30
0.0
 11
1109.5
 21
173.0
 31
0.0
  0
LINE
  5
458
330
1F
100
AcDbEntity
  8
図面枠
  6
Continuous
 62
     2
100
AcDbLine
 10
2015.5
 20
115.5
 30
0.0
 11
1109.5
 21
115.5
 31
0.0
  0
LINE
  5
459
330
1F
100
AcDbEntity
  8
図面枠
  6
Continuous
 62
     2
100
AcDbLine
 10
1615.5
 20
93.0
 30
0.0
 11
1109.5
 21
93.0
 31
0.0
  0
LINE
  5
45A
330
1F
100
AcDbEntity
  8
図面枠
  6
Continuous
 62
   131
100
AcDbLine
 10
1615.5
 20
58.0
 30
0.0
 11
1109.5
 21
58.0
 31
0.0
  0
LINE
  5
45B
330
1F
100
AcDbEntity
  8
図面枠
  6
Continuous
 62
     2
100
AcDbLine
 10
1363.0
 20
183.0
 30
0.0
 11
1965.5
 21
183.0
 31
0.0
  0
LINE
  5
45C
330
1F
100
AcDbEntity
  8
図面枠
  6
Continuous
 62
     2
100
AcDbLine
 10
1109.5
 20
200.5
 30
0.0
 11
1363.0
 21
200.5
 31
0.0
  0
LINE
  5
45D
330
1F
100
AcDbEntity
  8
図面枠
  6
Continuous
 62
   131
100
AcDbLine
 10
1993.0
 20
48.0
 30
0.0
 11
1993.0
 21
1433.0
 31
0.0
  0
LINE
  5
45E
330
1F
100
AcDbEntity
  8
図面枠
  6
Continuous
 62
   131
100
AcDbLine
 10
55.5
 20
1433.0
 30
0.0
 11
55.5
 21
48.0
 31
0.0
  0
LINE
  5
45F
330
1F
100
AcDbEntity
  8
作図線（隠線）
  6
EXLTYPE1
 62
   253
100
AcDbLine
 10
1478.7
 20
846.3
 30
0.0
 11
1478.7
 21
1086.3
 31
0.0
  0
LINE
  5
460
330
1F
100
AcDbEntity
  8
作図線（隠線）
  6
Continuous
 62
     7
100
AcDbLine
 10
1470.7
 20
1126.3
 30
0.0
 11
1473.7
 21
1126.3
 31
0.0
  0
LINE
  5
461
330
1F
100
AcDbEntity
  8
作図線（隠線）
  6
EXLTYPE1
 62
   253
100
AcDbLine
 10
1183.7
 20
1126.3
 30
0.0
 11
1473.7
 21
1126.3
 31
0.0
  0
LINE
  5
462
330
1F
100
AcDbEntity
  8
作図線（隠線）
  6
EXLTYPE1
 62
   253
100
AcDbLine
 10
506.9
 20
1126.3
 30
0.0
 11
726.9
 21
1126.3
 31
0.0
  0
LINE
  5
463
330
1F
100
AcDbEntity
  8
作図線（隠線）
  6
EXLTYPE1
 62
   253
100
AcDbLine
 10
586.9
 20
1026.3
 30
0.0
 11
586.9
 21
1032.3
 31
0.0
  0
LINE
  5
464
330
1F
100
AcDbEntity
  8
作図線（隠線）
  6
EXLTYPE1
 62
   253
100
AcDbLine
 10
576.9
 20
1026.3
 30
0.0
 11
586.9
 21
1026.3
 31
0.0
  0
LINE
  5
465
330
1F
100
AcDbEntity
  8
作図線（隠線）
  6
EXLTYPE1
 62
   253
100
AcDbLine
 10
576.9
 20
1026.3
 30
0.0
 11
576.9
 21
1032.3
 31
0.0
  0
LINE
  5
466
330
1F
100
AcDbEntity
  8
作図線（隠線）
  6
EXLTYPE1
 62
   253
100
AcDbLine
 10
578.9
 20
995.1
 30
0.0
 11
578.9
 21
1026.3
 31
0.0
  0
LINE
  5
467
330
1F
100
AcDbEntity
  8
作図線（隠線）
  6
EXLTYPE1
 62
   253
100
AcDbLine
 10
584.9
 20
995.1
 30
0.0
 11
584.9
 21
1026.3
 31
0.0
  0
LINE
  5
468
330
1F
100
AcDbEntity
  8
作図線（隠線）
  6
EXLTYPE2
 62
     3
100
AcDbLine
 10
613.0
 20
1004.3
 30
0.0
 11
613.0
 21
1001.3
 31
0.0
  0
LINE
  5
469
330
1F
100
AcDbEntity
  8
作図線（隠線）
  6
EXLTYPE2
 62
     3
100
AcDbLine
 10
620.8
 20
1004.3
 30
0.0
 11
620.8
 21
1001.3
 31
0.0
  0
LINE
  5
46A
330
1F
100
AcDbEntity
  8
作図線（隠線）
  6
EXLTYPE1
 62
   253
100
AcDbLine
 10
601.9
 20
1014.3
 30
0.0
 11
631.9
 21
1014.3
 31
0.0
  0
LINE
  5
46B
330
1F
100
AcDbEntity
  8
作図線（隠線）
  6
EXLTYPE1
 62
   253
100
AcDbLine
 10
607.9
 20
1014.3
 30
0.0
 11
607.9
 21
1012.3
 31
0.0
  0
LINE
  5
46C
330
1F
100
AcDbEntity
  8
作図線（隠線）
  6
EXLTYPE1
 62
   253
100
AcDbLine
 10
625.9
 20
1014.3
 30
0.0
 11
625.9
 21
1012.3
 31
0.0
  0
LINE
  5
46D
330
1F
100
AcDbEntity
  8
作図線（隠線）
  6
EXLTYPE1
 62
   253
100
AcDbLine
 10
607.1
 20
1012.3
 30
0.0
 11
607.1
 21
1004.3
 31
0.0
  0
LINE
  5
46E
330
1F
100
AcDbEntity
  8
作図線（隠線）
  6
EXLTYPE1
 62
   253
100
AcDbLine
 10
626.7
 20
1012.3
 30
0.0
 11
626.7
 21
1004.3
 31
0.0
  0
LINE
  5
46F
330
1F
100
AcDbEntity
  8
作図線（隠線）
  6
EXLTYPE1
 62
   253
100
AcDbLine
 10
607.1
 20
1012.3
 30
0.0
 11
626.7
 21
1012.3
 31
0.0
  0
LINE
  5
470
330
1F
100
AcDbEntity
  8
作図線（隠線）
  6
EXLTYPE1
 62
   253
100
AcDbLine
 10
607.1
 20
1004.3
 30
0.0
 11
626.7
 21
1004.3
 31
0.0
  0
LINE
  5
471
330
1F
100
AcDbEntity
  8
作図線（隠線）
  6
EXLTYPE1
 62
   253
100
AcDbLine
 10
611.9
 20
1001.3
 30
0.0
 11
621.9
 21
1001.3
 31
0.0
  0
LINE
  5
472
330
1F
100
AcDbEntity
  8
作図線（隠線）
  6
EXLTYPE1
 62
   253
100
AcDbLine
 10
601.9
 20
1017.3
 30
0.0
 11
601.9
 21
1014.3
 31
0.0
  0
LINE
  5
473
330
1F
100
AcDbEntity
  8
作図線（隠線）
  6
EXLTYPE1
 62
   253
100
AcDbLine
 10
631.9
 20
1017.3
 30
0.0
 11
631.9
 21
1014.3
 31
0.0
  0
LINE
  5
474
330
1F
100
AcDbEntity
  8
作図線（隠線）
  6
EXLTYPE1
 62
   253
100
AcDbLine
 10
611.9
 20
1004.3
 30
0.0
 11
611.9
 21
1001.3
 31
0.0
  0
LINE
  5
475
330
1F
100
AcDbEntity
  8
作図線（隠線）
  6
EXLTYPE1
 62
   253
100
AcDbLine
 10
621.9
 20
1004.3
 30
0.0
 11
621.9
 21
1001.3
 31
0.0
  0
LINE
  5
476
330
1F
100
AcDbEntity
  8
作図線（隠線）
  6
EXLTYPE1
 62
   253
100
AcDbLine
 10
596.9
 20
967.3
 30
0.0
 11
596.9
 21
1017.3
 31
0.0
  0
LINE
  5
477
330
1F
100
AcDbEntity
  8
作図線（隠線）
  6
EXLTYPE1
 62
   253
100
AcDbLine
 10
636.9
 20
967.3
 30
0.0
 11
636.9
 21
1017.3
 31
0.0
  0
LINE
  5
478
330
1F
100
AcDbEntity
  8
作図線（隠線）
  6
EXLTYPE3
 62
     3
100
AcDbLine
 10
644.9
 20
872.3
 30
0.0
 11
588.9
 21
872.3
 31
0.0
  0
LINE
  5
479
330
1F
100
AcDbEntity
  8
作図線（隠線）
  6
EXLTYPE3
 62
     3
100
AcDbLine
 10
596.9
 20
862.3
 30
0.0
 11
596.9
 21
882.3
 31
0.0
  0
LINE
  5
47A
330
1F
100
AcDbEntity
  8
作図線（隠線）
  6
EXLTYPE3
 62
     3
100
AcDbLine
 10
636.9
 20
862.3
 30
0.0
 11
636.9
 21
882.3
 31
0.0
  0
ARC
  5
47B
330
1F
100
AcDbEntity
  8
作図線（隠線）
  6
EXLTYPE1
 62
   253
100
AcDbCircle
 10
586.9
 20
850.3
 30
0.0
 40
5.0
100
AcDbArc
 50
180.0
 51
270.0
  0
LINE
  5
47C
330
1F
100
AcDbEntity
  8
作図線（隠線）
  6
EXLTYPE1
 62
   253
100
AcDbLine
 10
646.9
 20
845.3
 30
0.0
 11
586.9
 21
845.3
 31
0.0
  0
ARC
  5
47D
330
1F
100
AcDbEntity
  8
作図線（隠線）
  6
EXLTYPE1
 62
   253
100
AcDbCircle
 10
646.9
 20
850.3
 30
0.0
 40
5.0
100
AcDbArc
 50
270.0
 51
0.0
  0
LINE
  5
47E
330
1F
100
AcDbEntity
  8
作図線（隠線）
  6
EXLTYPE1
 62
   253
100
AcDbLine
 10
651.9
 20
850.3
 30
0.0
 11
651.9
 21
982.3
 31
0.0
  0
LINE
  5
47F
330
1F
100
AcDbEntity
  8
作図線（隠線）
  6
EXLTYPE1
 62
   253
100
AcDbLine
 10
581.9
 20
850.3
 30
0.0
 11
581.9
 21
982.3
 31
0.0
  0
LINE
  5
480
330
1F
100
AcDbEntity
  8
作図線（隠線）
  6
EXLTYPE1
 62
   253
100
AcDbLine
 10
616.9
 20
862.3
 30
0.0
 11
616.9
 21
882.3
 31
0.0
  0
LINE
  5
481
330
1F
100
AcDbEntity
  8
作図線（隠線）
  6
EXLTYPE1
 62
   253
100
AcDbLine
 10
588.9
 20
862.3
 30
0.0
 11
588.9
 21
882.3
 31
0.0
  0
LINE
  5
482
330
1F
100
AcDbEntity
  8
作図線（隠線）
  6
EXLTYPE1
 62
   253
100
AcDbLine
 10
644.9
 20
862.3
 30
0.0
 11
644.9
 21
882.3
 31
0.0
  0
LINE
  5
483
330
1F
100
AcDbEntity
  8
作図線（隠線）
  6
EXLTYPE1
 62
   253
100
AcDbLine
 10
644.9
 20
882.3
 30
0.0
 11
588.9
 21
882.3
 31
0.0
  0
LINE
  5
484
330
1F
100
AcDbEntity
  8
作図線（隠線）
  6
EXLTYPE1
 62
   253
100
AcDbLine
 10
644.9
 20
862.3
 30
0.0
 11
588.9
 21
862.3
 31
0.0
  0
CIRCLE
  5
485
330
1F
100
AcDbEntity
  8
作図線（隠線）
  6
EXLTYPE1
 62
   253
100
AcDbCircle
 10
596.9
 20
872.3
 30
0.0
 40
6.5
  0
LINE
  5
486
330
1F
100
AcDbEntity
  8
作図線（隠線）
  6
EXLTYPE1
 62
   253
100
AcDbLine
 10
644.9
 20
862.3
 30
0.0
 11
644.9
 21
882.3
 31
0.0
  0
CIRCLE
  5
487
330
1F
100
AcDbEntity
  8
作図線（隠線）
  6
EXLTYPE1
 62
   253
100
AcDbCircle
 10
636.9
 20
872.3
 30
0.0
 40
6.5
  0
LINE
  5
488
330
1F
100
AcDbEntity
  8
作図線（隠線）
  6
EXLTYPE1
 62
   253
100
AcDbLine
 10
646.9
 20
987.3
 30
0.0
 11
586.9
 21
987.3
 31
0.0
  0
ARC
  5
489
330
1F
100
AcDbEntity
  8
作図線（隠線）
  6
EXLTYPE1
 62
   253
100
AcDbCircle
 10
646.9
 20
982.3
 30
0.0
 40
5.0
100
AcDbArc
 50
0.0
 51
90.0
  0
ARC
  5
48A
330
1F
100
AcDbEntity
  8
作図線（隠線）
  6
EXLTYPE1
 62
   253
100
AcDbCircle
 10
586.9
 20
982.3
 30
0.0
 40
5.0
100
AcDbArc
 50
90.0
 51
180.0
  0
LWPOLYLINE
  5
48B
330
1F
100
AcDbEntity
  8
想像線
  6
EXLTYPE4
 62
     3
100
AcDbPolyline
 90
        5
 70
   128
 43
0.0
 10
1277.4
 20
846.3
 10
1357.4
 20
846.3
 10
1357.4
 20
1086.3
 10
1277.4
 20
1086.3
 10
1277.4
 20
846.3
  0
LWPOLYLINE
  5
492
330
1F
100
AcDbEntity
  8
想像線
  6
EXLTYPE4
 62
     3
100
AcDbPolyline
 90
        5
 70
   128
 43
0.0
 10
773.7
 20
846.3
 10
853.7
 20
846.3
 10
853.7
 20
1086.3
 10
773.7
 20
1086.3
 10
773.7
 20
846.3
  0
ENDSEC
  0
SECTION
  2
OBJECTS
  0
DICTIONARY
  5
C
330
0
100
AcDbDictionary
281
     1
  3
ACAD_COLOR
350
6C
  3
ACAD_GROUP
350
D
  3
ACAD_LAYOUT
350
1A
  3
ACAD_MATERIAL
350
6B
  3
ACAD_MLEADERSTYLE
350
543
  3
ACAD_MLINESTYLE
350
17
  3
ACAD_PLOTSETTINGS
350
19
  3
ACAD_PLOTSTYLENAME
350
E
  3
ACAD_SCALELIST
350
99
  3
ACAD_TABLESTYLE
350
92
  3
ACDBHEADERROUNDTRIPXREC
350
546
  3
AcDbVariableDictionary
350
59
  3
DWGPROPS
350
549
  0
DICTIONARY
  5
542
330
1F
100
AcDbDictionary
280
     1
281
     1
  0
DICTIONARY
  5
6C
102
{ACAD_REACTORS
330
C
102
}
330
C
100
AcDbDictionary
281
     1
  0
DICTIONARY
  5
D
102
{ACAD_REACTORS
330
C
102
}
330
C
100
AcDbDictionary
281
     1
  0
DICTIONARY
  5
1A
102
{ACAD_REACTORS
330
C
102
}
330
C
100
AcDbDictionary
281
     1
  3
Layout1
350
74
  3
Model
350
22
  0
DICTIONARY
  5
6B
102
{ACAD_REACTORS
330
C
102
}
330
C
100
AcDbDictionary
281
     1
  0
DICTIONARY
  5
543
102
{ACAD_REACTORS
330
C
102
}
330
C
100
AcDbDictionary
281
     1
  0
DICTIONARY
  5
17
102
{ACAD_REACTORS
330
C
102
}
330
C
100
AcDbDictionary
281
     1
  3
Standard
350
18
  0
DICTIONARY
  5
19
102
{ACAD_REACTORS
330
C
102
}
330
C
100
AcDbDictionary
281
     1
  0
ACDBDICTIONARYWDFLT
  5
E
102
{ACAD_REACTORS
330
C
102
}
330
C
100
AcDbDictionary
281
     1
  3
Normal
350
F
100
AcDbDictionaryWithDefault
340
F
  0
DICTIONARY
  5
99
102
{ACAD_REACTORS
330
C
102
}
330
C
100
AcDbDictionary
281
     1
  3
A0
350
49D
  3
A1
350
49E
  3
A2
350
49F
  3
A3
350
4A0
  3
A4
350
4A1
  3
A5
350
4A2
  3
A6
350
4A3
  3
A7
350
4A4
  3
A8
350
4A5
  3
A9
350
4A6
  3
B0
350
4A7
  3
B1
350
4A8
  3
B2
350
4A9
  3
B3
350
4AA
  3
B4
350
4AB
  3
B5
350
4AC
  3
B6
350
4AD
  3
B7
350
4AE
  3
B8
350
4AF
  3
B9
350
4B0
  3
C0
350
4B1
  3
C1
350
4B2
  3
C2
350
4B3
  3
C3
350
4B4
  3
C4
350
4B5
  3
C5
350
4B6
  3
C6
350
4B7
  3
C7
350
4B8
  3
C8
350
4B9
  3
C9
350
4BA
  3
D0
350
4BB
  3
D1
350
4BC
  3
D2
350
4BD
  0
DICTIONARY
  5
92
102
{ACAD_REACTORS
330
C
102
}
330
C
100
AcDbDictionary
281
     1
  3
Standard
350
93
  0
DICTIONARY
  5
546
102
{ACAD_REACTORS
330
C
102
}
330
C
100
AcDbDictionary
281
     1
  3
COLORDICT
350
547
  3
MATERIALDICT
350
548
  0
DICTIONARY
  5
59
102
{ACAD_REACTORS
330
C
102
}
330
C
100
AcDbDictionary
281
     1
  3
CANNOSCALE
350
545
  3
CTABLESTYLE
350
98
  3
DIMASSOC
350
4C1
  3
HIDETEXT
350
5E
  3
XCLIPFRAME
350
544
  0
XRECORD
  5
549
102
{ACAD_REACTORS
330
C
102
}
330
C
100
AcDbXrecord
280
     1
  1
DWGPROPS COOKIE
  2

  3

  4

  6

  7

  8
Administrator
  9

300
=
301
=
302
=
303
=
304
=
305
=
306
=
307
=
308
=
309
=
 40
0.0
 41
2453353.717125822
 42
2455527.769865162
  1

 90
        0
  0
LAYOUT
  5
74
102
{ACAD_REACTORS
330
1A
102
}
330
1A
100
AcDbPlotSettings
  1

  2
none_device
  4
ISO_C5_(229.00_x_162.00_MM)
  6

 40
0.0
 41
0.0
 42
0.0
 43
0.0
 44
229.0
 45
162.0
 46
0.0
 47
0.0
 48
0.0
 49
0.0
140
0.0
141
0.0
142
1.0
143
1.0
 70
   688
 72
     0
 73
     0
 74
     5
  7

 75
    16
147
1.0
148
0.0
149
0.0
100
AcDbLayout
  1
Layout1
 70
     0
 71
     1
 10
0.0
 20
0.0
 11
0.0
 21
0.0
 12
0.0
 22
0.0
 32
0.0
 14
0.0
 24
0.0
 34
0.0
 15
0.0
 25
0.0
 35
0.0
146
0.0
 13
0.0
 23
0.0
 33
0.0
 16
1.0
 26
0.0
 36
0.0
 17
0.0
 27
1.0
 37
0.0
 76
     0
330
73
  0
LAYOUT
  5
22
102
{ACAD_REACTORS
330
1A
102
}
330
1A
100
AcDbPlotSettings
  1

  2
none_device
  4
ISO_C5_(229.00_x_162.00_MM)
  6

 40
0.0
 41
0.0
 42
0.0
 43
0.0
 44
229.0
 45
162.0
 46
0.0
 47
0.0
 48
0.0
 49
0.0
140
0.0
141
0.0
142
1.0
143
1.0
 70
 11952
 72
     0
 73
     0
 74
     0
  7

 75
    16
147
1.0
148
0.0
149
0.0
100
AcDbLayout
  1
Model
 70
     1
 71
     0
 10
0.0
 20
0.0
 11
420.0
 21
297.0
 12
0.0
 22
0.0
 32
0.0
 14
5.5
 24
48.0
 34
0.0
 15
2015.5
 25
1433.0
 35
0.0
146
0.0
 13
0.0
 23
0.0
 33
0.0
 16
1.0
 26
0.0
 36
0.0
 17
0.0
 27
1.0
 37
0.0
 76
     0
330
1F
331
97
  0
MLINESTYLE
  5
18
102
{ACAD_REACTORS
330
17
102
}
330
17
100
AcDbMlineStyle
  2
STANDARD
 70
     0
  3

 62
     0
 51
90.0
 52
90.0
 71
     2
 49
0.5
 62
   256
  6
BYLAYER
 49
-0.5
 62
   256
  6
BYLAYER
  0
ACDBPLACEHOLDER
  5
F
102
{ACAD_REACTORS
330
E
102
}
330
E
  0
SCALE
  5
49D
102
{ACAD_REACTORS
330
99
102
}
330
99
100
AcDbScale
 70
     0
300
1:1
140
1.0
141
1.0
290
     1
  0
SCALE
  5
49E
102
{ACAD_REACTORS
330
99
102
}
330
99
100
AcDbScale
 70
     0
300
1:2
140
1.0
141
2.0
290
     0
  0
SCALE
  5
49F
102
{ACAD_REACTORS
330
99
102
}
330
99
100
AcDbScale
 70
     0
300
1:4
140
1.0
141
4.0
290
     0
  0
SCALE
  5
4A0
102
{ACAD_REACTORS
330
99
102
}
330
99
100
AcDbScale
 70
     0
300
1:5
140
1.0
141
5.0
290
     0
  0
SCALE
  5
4A1
102
{ACAD_REACTORS
330
99
102
}
330
99
100
AcDbScale
 70
     0
300
1:8
140
1.0
141
8.0
290
     0
  0
SCALE
  5
4A2
102
{ACAD_REACTORS
330
99
102
}
330
99
100
AcDbScale
 70
     0
300
1:10
140
1.0
141
10.0
290
     0
  0
SCALE
  5
4A3
102
{ACAD_REACTORS
330
99
102
}
330
99
100
AcDbScale
 70
     0
300
1:16
140
1.0
141
16.0
290
     0
  0
SCALE
  5
4A4
102
{ACAD_REACTORS
330
99
102
}
330
99
100
AcDbScale
 70
     0
300
1:20
140
1.0
141
20.0
290
     0
  0
SCALE
  5
4A5
102
{ACAD_REACTORS
330
99
102
}
330
99
100
AcDbScale
 70
     0
300
1:30
140
1.0
141
30.0
290
     0
  0
SCALE
  5
4A6
102
{ACAD_REACTORS
330
99
102
}
330
99
100
AcDbScale
 70
     0
300
1:40
140
1.0
141
40.0
290
     0
  0
SCALE
  5
4A7
102
{ACAD_REACTORS
330
99
102
}
330
99
100
AcDbScale
 70
     0
300
1:50
140
1.0
141
50.0
290
     0
  0
SCALE
  5
4A8
102
{ACAD_REACTORS
330
99
102
}
330
99
100
AcDbScale
 70
     0
300
1:100
140
1.0
141
100.0
290
     0
  0
SCALE
  5
4A9
102
{ACAD_REACTORS
330
99
102
}
330
99
100
AcDbScale
 70
     0
300
2:1
140
2.0
141
1.0
290
     0
  0
SCALE
  5
4AA
102
{ACAD_REACTORS
330
99
102
}
330
99
100
AcDbScale
 70
     0
300
4:1
140
4.0
141
1.0
290
     0
  0
SCALE
  5
4AB
102
{ACAD_REACTORS
330
99
102
}
330
99
100
AcDbScale
 70
     0
300
8:1
140
8.0
141
1.0
290
     0
  0
SCALE
  5
4AC
102
{ACAD_REACTORS
330
99
102
}
330
99
100
AcDbScale
 70
     0
300
10:1
140
10.0
141
1.0
290
     0
  0
SCALE
  5
4AD
102
{ACAD_REACTORS
330
99
102
}
330
99
100
AcDbScale
 70
     0
300
100:1
140
100.0
141
1.0
290
     0
  0
SCALE
  5
4AE
102
{ACAD_REACTORS
330
99
102
}
330
99
100
AcDbScale
 70
     0
300
1/128" = 1'-0"
140
0.0078125
141
12.0
290
     0
  0
SCALE
  5
4AF
102
{ACAD_REACTORS
330
99
102
}
330
99
100
AcDbScale
 70
     0
300
1/64" = 1'-0"
140
0.015625
141
12.0
290
     0
  0
SCALE
  5
4B0
102
{ACAD_REACTORS
330
99
102
}
330
99
100
AcDbScale
 70
     0
300
1/32" = 1'-0"
140
0.03125
141
12.0
290
     0
  0
SCALE
  5
4B1
102
{ACAD_REACTORS
330
99
102
}
330
99
100
AcDbScale
 70
     0
300
1/16" = 1'-0"
140
0.0625
141
12.0
290
     0
  0
SCALE
  5
4B2
102
{ACAD_REACTORS
330
99
102
}
330
99
100
AcDbScale
 70
     0
300
3/32" = 1'-0"
140
0.09375
141
12.0
290
     0
  0
SCALE
  5
4B3
102
{ACAD_REACTORS
330
99
102
}
330
99
100
AcDbScale
 70
     0
300
1/8" = 1'-0"
140
0.125
141
12.0
290
     0
  0
SCALE
  5
4B4
102
{ACAD_REACTORS
330
99
102
}
330
99
100
AcDbScale
 70
     0
300
3/16" = 1'-0"
140
0.1875
141
12.0
290
     0
  0
SCALE
  5
4B5
102
{ACAD_REACTORS
330
99
102
}
330
99
100
AcDbScale
 70
     0
300
1/4" = 1'-0"
140
0.25
141
12.0
290
     0
  0
SCALE
  5
4B6
102
{ACAD_REACTORS
330
99
102
}
330
99
100
AcDbScale
 70
     0
300
3/8" = 1'-0"
140
0.375
141
12.0
290
     0
  0
SCALE
  5
4B7
102
{ACAD_REACTORS
330
99
102
}
330
99
100
AcDbScale
 70
     0
300
1/2" = 1'-0"
140
0.5
141
12.0
290
     0
  0
SCALE
  5
4B8
102
{ACAD_REACTORS
330
99
102
}
330
99
100
AcDbScale
 70
     0
300
3/4" = 1'-0"
140
0.75
141
12.0
290
     0
  0
SCALE
  5
4B9
102
{ACAD_REACTORS
330
99
102
}
330
99
100
AcDbScale
 70
     0
300
1" = 1'-0"
140
1.0
141
12.0
290
     0
  0
SCALE
  5
4BA
102
{ACAD_REACTORS
330
99
102
}
330
99
100
AcDbScale
 70
     0
300
1-1/2" = 1'-0"
140
1.5
141
12.0
290
     0
  0
SCALE
  5
4BB
102
{ACAD_REACTORS
330
99
102
}
330
99
100
AcDbScale
 70
     0
300
3" = 1'-0"
140
3.0
141
12.0
290
     0
  0
SCALE
  5
4BC
102
{ACAD_REACTORS
330
99
102
}
330
99
100
AcDbScale
 70
     0
300
6" = 1'-0"
140
6.0
141
12.0
290
     0
  0
SCALE
  5
4BD
102
{ACAD_REACTORS
330
99
102
}
330
99
100
AcDbScale
 70
     0
300
1'-0" = 1'-0"
140
12.0
141
12.0
290
     0
  0
TABLESTYLE
  5
93
102
{ACAD_REACTORS
330
92
102
}
330
92
100
AcDbTableStyle
  3
Standard
 70
     0
 71
     0
 40
0.06
 41
0.06
280
     0
281
     0
  7
Standard
140
0.18
170
     2
 62
     0
 63
   257
283
     0
274
    -2
284
     1
 64
     0
275
    -2
285
     1
 65
     0
276
    -2
286
     1
 66
     0
277
    -2
287
     1
 67
     0
278
    -2
288
     1
 68
     0
279
    -2
289
     1
 69
     0
  7
Standard
140
0.25
170
     5
 62
     0
 63
   257
283
     0
274
    -2
284
     1
 64
     0
275
    -2
285
     1
 65
     0
276
    -2
286
     1
 66
     0
277
    -2
287
     1
 67
     0
278
    -2
288
     1
 68
     0
279
    -2
289
     1
 69
     0
  7
Standard
140
0.18
170
     5
 62
     0
 63
   257
283
     0
274
    -2
284
     1
 64
     0
275
    -2
285
     1
 65
     0
276
    -2
286
     1
 66
     0
277
    -2
287
     1
 67
     0
278
    -2
288
     1
 68
     0
279
    -2
289
     1
 69
     0
  0
XRECORD
  5
547
102
{ACAD_REACTORS
330
546
102
}
330
546
100
AcDbXrecord
280
     1
340
6C
  0
XRECORD
  5
548
102
{ACAD_REACTORS
330
546
102
}
330
546
100
AcDbXrecord
280
     1
340
6B
  0
DICTIONARYVAR
  5
545
102
{ACAD_REACTORS
330
59
102
}
330
59
100
DictionaryVariables
280
     0
  1
1:1
  0
DICTIONARYVAR
  5
98
102
{ACAD_REACTORS
330
59
102
}
330
59
100
DictionaryVariables
280
     0
  1
Standard
  0
DICTIONARYVAR
  5
4C1
102
{ACAD_REACTORS
330
59
102
}
330
59
100
DictionaryVariables
280
     0
  1
2
  0
DICTIONARYVAR
  5
5E
102
{ACAD_REACTORS
330
59
102
}
330
59
100
DictionaryVariables
280
     0
  1
1
  0
DICTIONARYVAR
  5
544
102
{ACAD_REACTORS
330
59
102
}
330
59
100
DictionaryVariables
280
     0
  1
0
  0
ENDSEC
  0
EOF
